ARRU





Прикончи меня, детка
Kill Me Baby [01-13 из 13][BDRip][HWP]   Bookmark


Скачать вход / регистрация
Тема на форуме Обсудить аниме (комментариев: 18)
Обсуждение раздачи (комментариев: 19)
ОписаниеПрикончи меня, детка / Kill Me Baby [01-13 из 13][BDRip][HWP]
Оригинальное название: Kill Me Baby
Английское название: Kill Me Baby
Русское название: Прикончи меня, детка

Страна: Япония
Жанр: комедия
Год выхода: 2012
Колличество серий: 13
Продолжительность: 25 мин
Студия: J.C.STAFF
Режиссёр: Ямакава Ёсики
Автор оригинала: Кадзухо

Описание:
Иностранка Соня – наемная убийца, живущая под легендой ученицы старшей школы. Несмотря на профессионализм и опыт «трудовой деятельности», до дрожи в коленках боится тараканов, призраков и диких животных. Агири Госики – ниндзя из той же организации, работающая под схожей легендой, вечно расслабленная девушка, не упускающая, однако, возможности слегка заработать на стороне. Ясуна Орибэ – абсолютно безбашенная Сонина одноклассница. И Девочка-без-имени, которую злые авторы придумали неизвестно для чего. Вот и все персонажи истории!

А теперь представьте, на что похожа японская школа, если для Ясуны общение и веселая тусовка с киллером и куноити – способ развлечься и сбросить напряжение? Если учесть, что по души подружек регулярно являются конкуренты, заказчики и профессиональные мстители, то жизнь простой японской школьницы надолго стала лучше и веселее!

© Hollow

Названия эпизодов - показать

01. Dogs and Ninjas Underneath the Cherry Blossoms
02. A Balloon Bear With Nunchaku
03. Of Esper`s Curse, Rainy Days, and Sumo
04. Of Ice, Watermelon, and Assassins
05. Of Selfless Festivals, the Sea, and Puppets
06. Home Visits, Storms and Ice
07. Of Culture, Juggling, and Battle
08. Traps, Instruments and Stabbing
09. Of Lures, Dirt, and Forgotten Branches
10. Of Santa, Icicles, and Snowmen
11. Of Baths, Mochi, and the First Dream of the Year
12. Of Chocolate, Sleep, and Wounds
13. Of Kill, Me and Baby


Источник рипа: BD-Rip
Автор рипа\энкод: RACER RS
Тип видео: Без хардсаба
Контейнер: AVI
Видео: XviD 64 | 720 x 404 (16:9) | 23,976 fps | 1450 kbps ;

Аудио:
RUS: AC3 | 48000Hz | 192 Kbps | 2ch
JAP: AC3 | 48000Hz | 256 Kbps | 2ch
Субтитры: Ru - soft [ASS]и[SRT]

Озвучивание: NASTR
Перевод: Advantage[01-10] AOS[11-13]

MediaInfo: - показать
Format                                   : AVI
Format/Info                              : Audio Video Interleave
File size                                : 342 MiB
Duration                                 : 24mn 12s
Overall bit rate                         : 1 976 Kbps
Writing application                      : VirtualDubMod 1.5.10.2 (build 2540/release)
Writing library                          : VirtualDubMod build 2540/release

Video
ID                                       : 0
Format                                   : MPEG-4 Visual
Format profile                           : Advanced Simple@L5
Format settings, BVOP                    : 2
Format settings, QPel                    : No
Format settings, GMC                     : No warppoints
Format settings, Matrix                  : Default (H.263)
Codec ID                                 : XVID
Codec ID/Hint                            : XviD
Duration                                 : 24mn 12s
Bit rate                                 : 1 450 Kbps
Width                                    : 720 pixels
Height                                   : 404 pixels
Display aspect ratio                     : 16:9
Frame rate                               : 23.976 fps
Color space                              : YUV
Chroma subsampling                       : 4:2:0
Bit depth                                : 8 bits
Scan type                                : Progressive
Compression mode                         : Lossy
Bits/(Pixel*Frame)                       : 0.208
Stream size                              : 251 MiB (73%)
Writing library                          : XviD 64

Audio #1
ID                                       : 1
Format                                   : AC-3
Format/Info                              : Audio Coding 3
Mode extension                           : CM (complete main)
Format settings, Endianness              : Big
Codec ID                                 : 2000
Duration                                 : 24mn 12s
Bit rate mode                            : Constant
Bit rate                                 : 256 Kbps
Channel(s)                               : 2 channels
Channel positions                        : Front: L R
Sampling rate                            : 48.0 KHz
Bit depth                                : 16 bits
Compression mode                         : Lossy
Stream size                              : 44.3 MiB (13%)
Alignment                                : Split accross interleaves
Interleave, duration                     : 42 ms (1.00 video frame)
Interleave, preload duration             : 500 ms
Title                                    : NASTR [Russian]

Audio #2
ID                                       : 2
Format                                   : AC-3
Format/Info                              : Audio Coding 3
Mode extension                           : CM (complete main)
Format settings, Endianness              : Big
Codec ID                                 : 2000
Duration                                 : 24mn 12s
Bit rate mode                            : Constant
Bit rate                                 : 256 Kbps
Channel(s)                               : 2 channels
Channel positions                        : Front: L R
Sampling rate                            : 48.0 KHz
Bit depth                                : 16 bits
Compression mode                         : Lossy
Stream size                              : 44.3 MiB (13%)
Alignment                                : Split accross interleaves
Interleave, duration                     : 42 ms (1.00 video frame)
Interleave, preload duration             : 500 ms
Title                                    : Original [Japanese]





Скриншоты: - показать



Дядя Шарик
Релиз от
источник
ARRU & Moscow City Animegroup - MCA & REBUILD ARRU   &   RACER_RS
А вы ничего не забыли?
наверх

Последние поступления