ARRU





Nisemonogatari
Истории подделок (TV)(2012)[01-11 из 11][BD-Rip][720p]   Bookmark


Скачать вход / регистрация
Тема на форуме Обсудить аниме (комментариев: 910)
Обсуждение раздачи (комментариев: 55)
ОписаниеNisemonogatari / Истории подделок (TV)(2012)[01-11 из 11][BD-Rip][720p]
Английское название: Nisemonogatari
Русское название: Истории подделок
Страна: Япония
Год выпуска: 2012
Жанр: приключения
Категория: TV
Количество эпизодов: >12
Продолжительность: 25 мин
Режиссёр: Симбо Акиюки
Автор оригинала: Нисио Исин
Студия:


Описание:
 Жил-был старшеклассник Коёми Арараги, нормальный такой парень, бывший вампир. Пережить ему пришлось столько, что друзей-ровесников у Коёми не было, зато было много подруг. Правда, как на грех, все подруги оказалось прокляты богами или демонами, но с кем не бывает! Пользуясь новыми силами и связями в оккультном мире, Арараги сумел помочь своим девушкам, а с любимой по имени Хитаги Сэндзёгахара проклятие, кажется, удалось снять полностью (хотя в минуты слабости герой в этом очень сомневается!). И вроде бы все стало хорошо, живи себе, поживай, к экзаменам готовься...
 Увы, в жизни так не бывает. Сначала пропал Мэмэ Осино, старый хиппи, он же гуру и духовный учитель. Потом до Коёми стали доходить слухи, что его младшие сестры Карэн и Цукихи, под влиянием братика объявившие себя «рыцарями правосудия» и даже заработавшие кличку «огненные сестры школы Цуга», слегка заигрались. Увы, по сравнению с такими фигурами, как Осино, да и сам Арараги, «огненные сестренки» – лишь подделки, пародия на серьезных специалистов. Имитируя бурную деятельность, Карэн и Цукихи среди фальшивок и иллюзий наткнулись на нечто серьезное и не очень дружелюбное. В итоге свои неприятности они получили, а брату опять расхлебывать!
© Hollow

Названия эпизодов:
01. Karen Bee, Part 1
02. Karen Bee, Part 2
03. Karen Bee, Part 3
04. Karen Bee, Part 4
05. Karen Bee, Part 5
06. Karen Bee, Part 6
07. Karen Bee, Part 7
08. Tsukihi Phoenix, Part 1
09. Tsukihi Phoenix, Part 2
10. Tsukihi Phoenix, Part 3
11. Tsukihi Phoenix, Part 4

Качество рипа: BDRip
Автор рипа: Yousei-raws
Тип видео: Без хардсаба
Контейнер: mkv
Видео: AVC (h264) | 10 bit | 1280x720 pixels | ~3000Kbps | 23.976 fps

Внимание:
Видео 10-битное! Скачайте и установите свежую версию СССР или K-Lite (x32) и смотрите видео с помощью встроенного туда плеера MPC-HC,  или установите сборку KMP с использованием LAV Filters. Как еще один вариант, можно использовать VLC.

Аудио:
RUS: AC3 | 48.0 КГц | стерео | 224 Кбит/сек;
JAP: Vorbis | 48.0 КГц | стерео | 256 Кбит/сек

Субтитры: [Dreamers Team]
Озвучивание: Valkrist & Keneretta
По переводу: Hyakka Ryoran Fansubs

MediaInfo: - показать
Общее
Формат                           : Matroska
Версия формата                   : Version 2
Размер файла                     : 738 Мбайт
Продолжительность                : 26 м.
Режим общего битрейта            : Переменный
Общий поток                      : 3925 Кбит/сек
Дата кодирования                 : UTC 2012-10-18 16:59:21
Программа кодирования            : mkvmerge v3.4.0 сборка от May 15 2010 09:38:20
Библиотека кодирования           : libebml v0.8.0 + libmatroska v0.9.0

Видео
Идентификатор                    : 1
Формат                           : AVC
Формат/Информация                : Advanced Video Codec
Профиль формата                  : High 10@L4.1
Параметр CABAC формата           : Да
Параметр ReFrames формата        : 9 кадров
Идентификатор кодека             : V_MPEG4/ISO/AVC
Продолжительность                : 26 м.
Битрейт                          : 3367 Кбит/сек
Ширина                           : 1280 пикселей
Высота                           : 720 пикселей
Соотношение сторон               : 16:9
Частота кадров                   : 23,976 кадра/сек
Цветовое пространство            : YUV
Субдискретизация насыщенности    : 4:2:0
Битовая глубина                  : 10 бит
Тип развёртки                    : Прогрессивная
Бит/(Пиксели*Кадры)              : 0.152
Размер потока                    : 633 Мбайт (86%)
Заголовок                        : Yousei-raws
Библиотека кодирования           : x264 core 120 r2164 da19765
Язык                             : Japanese
Default                          : Да
Forced                           : Нет

Аудио #1
Идентификатор                    : 2
Формат                           : AC-3
Формат/Информация                : Audio Coding 3
Расширение режима                : CM (complete main)
Идентификатор кодека             : A_AC3
Продолжительность                : 26 м.
Вид битрейта                     : Постоянный
Битрейт                          : 224 Кбит/сек
Каналы                           : 2 канала
Расположение каналов             : Front: L R
Частота                          : 48,0 КГц
Битовая глубина                  : 16 бит
Метод сжатия                     : С потерями
Размер потока                    : 42,1 Мбайт (6%)
Заголовок                        : Valkrist & Keneretta
Язык                             : Russian
Default                          : Да
Forced                           : Нет

Аудио #2
Идентификатор                    : 3
Формат                           : Vorbis
Параметр Floor формата           : 1
Идентификатор кодека             : A_VORBIS
Продолжительность                : 26 м.
Вид битрейта                     : Переменный
Битрейт                          : 256 Кбит/сек
Каналы                           : 2 канала
Частота                          : 48,0 КГц
Метод сжатия                     : С потерями
Размер потока                    : 48,1 Мбайт (7%)
Заголовок                        : Original
Библиотека кодирования           : libVorbis (Schaufenugget) (20101101 (Schaufenugget))
Язык                             : Japanese
Default                          : Нет
Forced                           : Нет

Текст #1
Идентификатор                    : 4
Формат                           : ASS
Идентификатор кодека             : S_TEXT/ASS
Идентификатор кодека/Информация  : Advanced Sub Station Alpha
Метод сжатия                     : Без потерь
Заголовок                        : Надписи (Dreamers Team)
Язык                             : Russian
Default                          : Да
Forced                           : Нет

Текст #2
Идентификатор                    : 5
Формат                           : ASS
Идентификатор кодека             : S_TEXT/ASS
Идентификатор кодека/Информация  : Advanced Sub Station Alpha
Метод сжатия                     : Без потерь
Заголовок                        : Dreamers Team
Язык                             : Russian
Default                          : Нет
Forced                           : Нет



Скриншоты: - показать




От себя:
Данный релиз был был предоставлен товарищем Aglenn, за что ему огромное спасибо.
Дядя Шарик
Релиз от
источник
ARRU & Moscow City Animegroup - MCA & REBUILD ARRU
А вы ничего не забыли?
наверх

Последние поступления