ARRU





Поедающая Сны
Yumekui Merry [1-13 of 13] [BD-Rip 1080p]   Bookmark


Скачать вход / регистрация
Тема на форуме Обсудить аниме (комментариев: 77)
Обсуждение раздачи (комментариев: 51)
ОписаниеПоедающая Сны / Yumekui Merry [1-13 of 13] [BD-Rip 1080p]
Оригинальное название:  夢喰いメリー
Английское название: Yumekui Merry
Русское название: Мэрри, пожирательница грёз

Страна: Япония
Жанр: приключения, романтика, мистика,
Год выхода: 2011
Колличество серий: 13
Продолжительность: 24 мин
Студия: J.C.STAFF
Режиссёр: Ямаучи Шигэясу
Автор оригинала: Ушики Ёшитака

Описание:
«Поедающая Сны» («夢喰いメリー» «Yumekui Merry»)
Фудзивара Юмедзи. Ничем не примечательный юноша… По идее. Был. Когда-то. Непримечательным. В возрасте 7 лет, он открыл для себя странную силу… Силу видеть ауру снов. Он может узнать какой сон снился человеку, по этой ауре… С некоторой вероятностью успеха. Да уж, есть куда развиваться… Впрочем, один тип снов Юмедзи может узнать всегда. Один. Единственный. Непохожий на остальные. Да. Кошмар. Ночной кошмар. Сон, чёрный как смоль.
Очень часто, Фудзивару посещает один и тот же кошмар… Сон, про войну с… кошками. И эта война уже скоро должна подойти к концу, Юмедзи пообещали, что в следующий раз он встретится с Кошачьим Главой… Что за Глава? Ну да и чёрт с ним, думает Юмедзи… В тот же день ему, буквально, на голову падает странная девчонка… Так всё и начинается. Или, быть может, всё началось уже давно?..

Ёситака Усуки предлагает нам посмотреть на человека, который встретился с Ночным Кошмаром. Человеком, чей ночной кошмар ожил. Человеком, чей Кошмар попытался взять над ним верх. Интересно? Очень!

© Xellos Slayer

Названия эпизодов - показать

01. Dream Reality
02. Dreams and Hopes
03. From the Other Side of a Dream
04. Dream Eater Merry
05. Astray in a Dream
06. Dream Encounter
07. Dreams and Swimsuits and the Colour of the Sea
08. Dream Corridor
09. Disturbed Dreams
10. Not Awakening from a Dream
11. Guardian of Dreams
12. Nightmare
13. Dream Again


Источник рипа: BD
Автор рипа\энкод: ReinForce
BD - тайминг звука: Vulpes все, Persona99 (4 и 5 серии) RACER RS (остальные неизвестно)
Тип видео: Без хардсаба
Контейнер: MKV
Видео: x264 High@L4.0 | 1920 x 1080 (16:9) | 23,976 fps | 5000 kbps ;

Аудио:
RUS 1: AC3 | 48000Hz | 192 Kbps | 2ch Persona99
RUS 2: MP3 | 48000Hz | 192 Kbps | 2ch Vulpes Vulpes
JAP: FLAC | 48000Hz | 600 Kbps | 2ch
Субтитры: Ru - soft [ASS]

Перевод:
StormHeart and Stan WarHammer(1-8 серии)
[Dreamers Team]: DARio, InFar, Rain lover (9-13 серии)

MediaInfo: - показать
Format                                   : Matroska
Format version                           : Version 2
File size                                : 1.02 GiB
Duration                                 : 24mn 12s
Overall bit rate mode                    : Variable
Overall bit rate                         : 6 043 Kbps
Movie name                               : [ReinForce] Yumekui Merry - 02 (BD 1920x1080 x264 FLAC)
Encoded date                             : UTC 2012-10-19 14:41:46
Writing application                      : mkvmerge v5.3.0 ('I could have danced' built on Feb  9 2012 10:38:07
Writing library                          : libebml v1.2.3 + libmatroska v1.3.0
Attachment                               : Yes / Yes / Yes / Yes / Yes / Yes / Yes

Video
ID                                       : 1
Format                                   : AVC
Format/Info                              : Advanced Video Codec
Format profile                           : High@L4.0
Format settings, CABAC                   : Yes
Format settings, ReFrames                : 4 frames
Muxing mode                              : Header stripping
Codec ID                                 : V_MPEG4/ISO/AVC
Width                                    : 1 920 pixels
Height                                   : 1 080 pixels
Display aspect ratio                     : 16:9
Frame rate mode                          : Variable
Original frame rate                      : 23.976 fps
Color space                              : YUV
Chroma subsampling                       : 4:2:0
Bit depth                                : 8 bits
Scan type                                : Progressive
Writing library                          : x264 core 107
Encoding settings                        : cabac=1 / ref=4 / deblock=1:-2:-2 / analyse=0x3:0x113 / me=umh / subme=9 / psy=1 / psy_rd=0.70:0.00 / mixed_ref=0 / me_range=32 / chroma_me=1 / trellis=2 / 8x8dct=1 / cqm=0 / deadzone=21,11 / fast_pskip=1 / chroma_qp_offset=-2 / threads=8 / sliced_threads=0 / nr=0 / decimate=1 / interlaced=0 / constrained_intra=0 / bframes=9 / b_pyramid=2 / b_adapt=2 / b_bias=0 / direct=3 / weightb=1 / open_gop=0 / weightp=2 / keyint=250 / keyint_min=23 / scenecut=40 / intra_refresh=0 / rc_lookahead=40 / rc=crf / mbtree=1 / crf=16.0 / qcomp=0.70 / qpmin=10 / qpmax=20 / qpstep=4 / ip_ratio=1.40 / aq=1:1.00
Language                                 : Japanese
Default                                  : Yes
Forced                                   : No

Audio #1
ID                                       : 2
Format                                   : AC-3
Format/Info                              : Audio Coding 3
Mode extension                           : CM (complete main)
Format settings, Endianness              : Big
Muxing mode                              : Header stripping
Codec ID                                 : A_AC3
Duration                                 : 24mn 12s
Bit rate mode                            : Constant
Bit rate                                 : 192 Kbps
Channel(s)                               : 2 channels
Channel positions                        : Front: L R
Sampling rate                            : 48.0 KHz
Bit depth                                : 16 bits
Compression mode                         : Lossy
Stream size                              : 33.2 MiB (3%)
Title                                    : Persona99
Language                                 : Russian
Default                                  : Yes
Forced                                   : No

Audio #2
ID                                       : 3
Format                                   : MPEG Audio
Format version                           : Version 1
Format profile                           : Layer 3
Mode                                     : Joint stereo
Mode extension                           : MS Stereo
Muxing mode                              : Header stripping
Codec ID                                 : A_MPEG/L3
Codec ID/Hint                            : MP3
Duration                                 : 24mn 12s
Bit rate mode                            : Constant
Bit rate                                 : 192 Kbps
Channel(s)                               : 2 channels
Sampling rate                            : 48.0 KHz
Compression mode                         : Lossy
Stream size                              : 33.2 MiB (3%)
Title                                    : Vulpes Vulpes
Writing library                          : LAME3.96
Language                                 : Russian
Default                                  : No
Forced                                   : No

Audio #3
ID                                       : 4
Format                                   : FLAC
Format/Info                              : Free Lossless Audio Codec
Codec ID                                 : A_FLAC
Duration                                 : 24mn 12s
Bit rate mode                            : Variable
Channel(s)                               : 2 channels
Sampling rate                            : 48.0 KHz
Bit depth                                : 16 bits
Title                                    : Original
Writing library                          : Lavf52.108.0
Language                                 : Japanese
Default                                  : No
Forced                                   : No

Text
ID                                       : 5
Format                                   : ASS
Codec ID                                 : S_TEXT/ASS
Codec ID/Info                            : Advanced Sub Station Alpha
Compression mode                         : Lossless
Language                                 : Russian
Default                                  : No
Forced                                   : No




Скриншоты: - показать




Дядя Шарик
Релиз от
источник
ARRU & Get Smart & Vulpes Vulpes & REBUILD ARRU   &   RACER_RS
А вы ничего не забыли?
наверх

Последние поступления