ARRU





Lucky Star TV
Счастливая звезда ТВ [01-24 из 24] [BDRip][HWP]   Bookmark


Скачать вход / регистрация
Тема на форуме Обсудить аниме (комментариев: 115)
Обсуждение раздачи (комментариев: 190)
ОписаниеLucky Star TV / Счастливая звезда ТВ [01-24 из 24] [BDRip][HWP]
Оригинальное название: らき☆すた
Английское название: Lucky Star
Русское название: Счастливая звезда

Страна: Япония
Год выпуска: 2007
Жанр: комедия, повседневность
Количество эпизодов: 24 эпизода
Продолжительность: 25 минут
Студия: Kyoto Animation
Режиссёр: Ямамото Ютака
Автор оригинала: Ёсимидзу Кагами

Описание:
Коната Идзуми – отаку на всю голову: ее интересует всё, что связано с аниме, мангой, он-лайн играми и косплеем. Спорт, учеба и социальные успехи занимают ее куда меньше. Миюки Такара – воплощенный моэ-кавай: она трогательно неуклюжа, ангельски добросердечна и носит очки. Цукаса Хиираги – «вечный тормоз», тихий благостный флегматик, а ее близняшка Кагами – целеустремленный эгоцентрик.

А дружба их объясняется просто: противоположности сходятся, особенно когда учатся в одном классе/школе...
© Анастасия Розанова

Названия эпизодов - показать

01. The Girl Who Dashes Off
02. Effort and Result
03. Various People
04. The Problem of Motivation
05. Famous Shooter
06. Summer Events
07. Image
08. Full of Vigor Despite Not Being Me
09. That Feeling
10. Wish
11. The Various Ways for Spending the Holy Night
12. Let's Go to the Festival
13. Delicious Day
14. Under One Roofl
15. I Can't Suddenly Change
16. The Ring
17. At the Base of the Sun
18. Different Strokes for Different Folks
19. There is Substance in 2-D
20. Ways for Spending Summer
21. Pandora's Box
22. The Yonder Here
23. A Delicate Line
24. Pending


Источник рипа: BD-Rip
Автор рипа\энкод: RACER RS
Тип видео: Без хардсаба
Контейнер: AVI
Видео: XviD 64 | 720 x 404 (16:9) | 23,976 fps | 1450 kbps ;

Аудио:
RUS: AC3 | 48000Hz | 192 Kbps | 2ch
JAP: AC3 | 48000Hz | 256 Kbps | 2ch
Субтитры: Ru - soft [ASS]и[SRT]

Озвучивание: ANCORD
Перевод: redbull & CowboyFunk

MediaInfo: - показать

General
Complete name                            : I:\ARRU Rebuild\Lucky_Star [01-24 of 24] [BD-Rip] [HWP]\Lucky_Star_TV_[10_of_24]_[720x404 XviD AC3x2]_[Animereactor_ru].avi
Format                                   : AVI
Format/Info                              : Audio Video Interleave
File size                                : 324 MiB
Duration                                 : 23mn 41s
Overall bit rate                         : 1 912 Kbps
Writing application                      : VirtualDubMod 1.5.10.2 (build 2540/release)
Writing library                          : VirtualDubMod build 2540/release

Video
ID                                       : 0
Format                                   : MPEG-4 Visual
Format profile                           : Advanced Simple@L5
Format settings, BVOP                    : 2
Format settings, QPel                    : No
Format settings, GMC                     : No warppoints
Format settings, Matrix                  : Default (H.263)
Codec ID                                 : XVID
Codec ID/Hint                            : XviD
Duration                                 : 23mn 41s
Bit rate                                 : 1 450 Kbps
Width                                    : 720 pixels
Height                                   : 404 pixels
Display aspect ratio                     : 16:9
Frame rate                               : 23.976 fps
Color space                              : YUV
Chroma subsampling                       : 4:2:0
Bit depth                                : 8 bits
Scan type                                : Progressive
Compression mode                         : Lossy
Bits/(Pixel*Frame)                       : 0.208
Stream size                              : 246 MiB (76%)
Writing library                          : XviD 64

Audio #1
ID                                       : 1
Format                                   : AC-3
Format/Info                              : Audio Coding 3
Mode extension                           : CM (complete main)
Format settings, Endianness              : Big
Codec ID                                 : 2000
Duration                                 : 23mn 41s
Bit rate mode                            : Constant
Bit rate                                 : 192 Kbps
Channel(s)                               : 2 channels
Channel positions                        : Front: L R
Sampling rate                            : 48.0 KHz
Bit depth                                : 16 bits
Compression mode                         : Lossy
Stream size                              : 32.5 MiB (10%)
Alignment                                : Split accross interleaves
Interleave, duration                     : 42 ms (1.00 video frame)
Interleave, preload duration             : 500 ms
Title                                    : ANCORD [Russian]

Audio #2
ID                                       : 2
Format                                   : AC-3
Format/Info                              : Audio Coding 3
Mode extension                           : CM (complete main)
Format settings, Endianness              : Big
Codec ID                                 : 2000
Duration                                 : 23mn 41s
Bit rate mode                            : Constant
Bit rate                                 : 256 Kbps
Channel(s)                               : 2 channels
Channel positions                        : Front: L R
Sampling rate                            : 48.0 KHz
Bit depth                                : 16 bits
Compression mode                         : Lossy
Stream size                              : 43.4 MiB (13%)
Alignment                                : Split accross interleaves
Interleave, duration                     : 42 ms (1.00 video frame)
Interleave, preload duration             : 500 ms
Title                                    : Original [Japanese]

Скриншоты: - показать




PS За обложку отдельное спасибо fallenskies

Дядя Шарик
Релиз от
источник
ARRU & ARRU Poster & REBUILD ARRU   &   RACER_RS
А вы ничего не забыли?
наверх

Последние поступления