ARRU





Иная
Another (2012)[01-12 из 12][BD-Rip][HWP]   Bookmark


Скачать вход / регистрация
Тема на форуме Обсудить аниме (комментариев: 194)
Обсуждение раздачи (комментариев: 27)
ОписаниеИная / Another (2012)[01-12 из 12][BD-Rip][HWP]
Оригинальное название: Another
Английское название: Another
Русское название: Иная / Другая
Страна: Япония
Год выпуска / период трансляции: c 10.01.2012 по 27.03.2012
Жанр: ужасы, мистика, школа
Количество эпизодов: 12
Продолжительность: 25 мин
Режиссёр:  Мидзусима Цутому
Автор оригинала: Аяцудзи Юкито
Студия:


Описание:
Пятнадцатилетний Коити Сакакибара – не хулиган, не спортсмен и не красавец. Мать его рано умерла, отец пропадал в экспедициях, без родительского пригляда парень получил болезнь легких и стал чахнуть в загазованном Токио. Выход нашелся простой и испытанный – переезд к родне матери в сельский городок Ёмияма. В глубинке нравы простые, не зря тетушка Рэйко просвещала племянника, что в новой школе нельзя высовываться, отрываться от коллектива, короче, надо быть как все. Застенчивый и спокойный Коити другого и не желал, но даже так быстро почувствовал, что обстановка в его девятом «В» классе странная, давящая и нездоровая…

Четверть века назад в той же школе в том же классе училась Мисаки, яркая и способная девочка. Она погибла, причем подробности до сих пор покрыты мраком. Но почему-то после трагедии одноклассники заявили, что Мисаки не мертва, а по-прежнему рядом с ними, даже директор отвел ей место на церемонии выпуска. Только ученики Северной школы (то есть, весь город) знают, почему с тех пор в 9-м «В» каждый год последнее место левого ряда остается незанятым, и что нужно делать, чтобы окончить этот класс живым. Но Коити-то чужак и этого не знал, а все вокруг почему-то уверены, что он держит ключ к тайне! А что им еще думать, если столичный гость первым взял и открыто заговорил с тихой девочкой с повязкой на глазу по имени… Мэй Мисаки!

© Hollow

Названия эпизодов: - показать

Серия 1. Грубый набросок
Серия 2. Перспектива
Серия 3. Каркас
Серия 4. Наращивая плоть
Серия 5. Расширение
Серия 5. Вдвоём
Серия 7. Аномалия
Серия 8. Лазурь
Серия 9. Цепь
Серия 10. Кромешная тьма
Cерия 11. Трагедия
Серия 12. Мертвый


Источник рипа: BD-Rip [Yoursei-raws]
Автор рипа\энкод: Renmei Rei
Тип видео: Без хардсаба
Контейнер: AVI
Видео: XviD (1.2.1) | 720 x 404 пикселей | 23,976 кадра/сек | ~1200-1500 Кбит/сек ;

Аудио:
RUS1: AC-3 | 48.0 КГц | стерео | 256 Кбит/сек • двухголосый/любительский: KroshkaRu & MifSnaiper;
RUS2: AC-3 | 48.0 КГц | стерео | 256 Кбит/сек • двухголосый/любительский: Scrap & Kasumi;
RUS3: AC-3 | 48.0 КГц | стерео | 192 Кбит/сек • одноголосый/любительский: Persona99;
JAP:  AC-3 | 48.0 КГц | стерео | 256 Кбит/сек • оригинал

Субтитры: русские\внешние [SRT,SSA][Hollow & Obelikx]
Перевод: Hollow

MediaInfo: - показать
Общее
Полное имя                               : D:\Video\HWP\[AnimeReactor.RU] Another (TV)[1-12 of 12][BDRip][HWP]\Another [01 of 12][BDRip][720x404 XviD AC3x3][SeM & Co & RG Kujian & GetSmart & AnimeReactor.RU].avi
Формат                                   : AVI
Формат/Информация                        : Audio Video Interleave
Размер файла                             : 439 Мбайт
Продолжительность                        : 24 м.
Общий поток                              : 2482 Кбит/сек
Программа кодирования                    : VirtualDubModRus 1.5.10.2 (build 2542/release)
Библиотека кодирования                   : VirtualDubMod build 2542/release

Видео
Идентификатор                            : 0
Формат                                   : MPEG-4 Visual
Профиль формата                          : Advanced Simple@L5
Параметр BVOP формата                    : 2
Параметр QPel формата                    : Нет
Параметр GMC формата                     : Без точки перехода
Параметр матрицы формата                 : Default (H.263)
Идентификатор кодека                     : XVID
Идентификатор кодека/Подсказка           : XviD
Продолжительность                        : 24 м.
Битрейт                                  : 1499 Кбит/сек
Ширина                                   : 720 пикселей
Высота                                   : 404 пикселя
Соотношение сторон                       : 16:9
Частота кадров                           : 23,976 кадра/сек
Цветовое пространство                    : YUV
Субдискретизация насыщенности            : 4:2:0
Битовая глубина                          : 8 бит
Тип развёртки                            : Прогрессивная
Метод сжатия                             : С потерями
Бит/(Пиксели*Кадры)                      : 0.215
Размер потока                            : 265 Мбайт (60%)
Библиотека кодирования                   : XviD 1.2.1 (UTC 2008-12-04)

Аудио #1
Идентификатор                            : 1
Формат                                   : AC-3
Формат/Информация                        : Audio Coding 3
Расширение режима                        : CM (complete main)
Параметр Endianness формата              : Big
Идентификатор кодека                     : 2000
Продолжительность                        : 24 м.
Вид битрейта                             : Постоянный
Битрейт                                  : 256 Кбит/сек
Каналы                                   : 2 канала
Расположение каналов                     : Front: L R
Частота                                  : 48,0 КГц
Битовая глубина                          : 16 бит
Метод сжатия                             : С потерями
Размер потока                            : 45,2 Мбайт (10%)
Выравнивание                             : Разделение по промежуткам
Продолжительность промежутка             : 42  мс. (1,00 видеокадр)
Время предзагрузки промежутка            : 500  мс.
Заголовок                                : Russian [KroshkaRu & MifSnaiper]

Аудио #2
Идентификатор                            : 2
Формат                                   : AC-3
Формат/Информация                        : Audio Coding 3
Расширение режима                        : CM (complete main)
Параметр Endianness формата              : Big
Идентификатор кодека                     : 2000
Продолжительность                        : 24 м.
Вид битрейта                             : Постоянный
Битрейт                                  : 256 Кбит/сек
Каналы                                   : 2 канала
Расположение каналов                     : Front: L R
Частота                                  : 48,0 КГц
Битовая глубина                          : 16 бит
Метод сжатия                             : С потерями
Размер потока                            : 45,2 Мбайт (10%)
Выравнивание                             : Разделение по промежуткам
Продолжительность промежутка             : 42  мс. (1,00 видеокадр)
Время предзагрузки промежутка            : 500  мс.
Заголовок                                : Russian [Scrap & Kasumi]

Аудио #3
Идентификатор                            : 3
Формат                                   : AC-3
Формат/Информация                        : Audio Coding 3
Расширение режима                        : CM (complete main)
Параметр Endianness формата              : Big
Идентификатор кодека                     : 2000
Продолжительность                        : 24 м.
Вид битрейта                             : Постоянный
Битрейт                                  : 192 Кбит/сек
Каналы                                   : 2 канала
Расположение каналов                     : Front: L R
Частота                                  : 48,0 КГц
Битовая глубина                          : 16 бит
Метод сжатия                             : С потерями
Размер потока                            : 33,9 Мбайт (8%)
Выравнивание                             : Разделение по промежуткам
Продолжительность промежутка             : 42  мс. (1,00 видеокадр)
Время предзагрузки промежутка            : 500  мс.
Заголовок                                : Russian [Persona99]

Аудио #4
Идентификатор                            : 4
Формат                                   : AC-3
Формат/Информация                        : Audio Coding 3
Расширение режима                        : CM (complete main)
Параметр Endianness формата              : Big
Идентификатор кодека                     : 2000
Продолжительность                        : 24 м.
Вид битрейта                             : Постоянный
Битрейт                                  : 256 Кбит/сек
Каналы                                   : 2 канала
Расположение каналов                     : Front: L R
Частота                                  : 48,0 КГц
Битовая глубина                          : 16 бит
Метод сжатия                             : С потерями
Размер потока                            : 45,2 Мбайт (10%)
Выравнивание                             : Разделение по промежуткам
Продолжительность промежутка             : 42  мс. (1,00 видеокадр)
Время предзагрузки промежутка            : 500  мс.
Заголовок                                : Japanese [Original]


Скриншоты: - показать


Дядя Шарик
Релиз от
источник
ARRU & MifSnaiper & SeM & RenmeiRei & REBUILD ARRU   &   GetSmart & RG Kujian
А вы ничего не забыли?
наверх

Последние поступления