ARRU





Musekinin Kanchou Tylor
Безответственный капитан Тайлор (1993)[1-26 из 26][BDRip][HWP]   Bookmark


Скачать вход / регистрация
Тема на форуме Обсудить аниме (комментариев: 46)
Обсуждение раздачи (комментариев: 27)
ОписаниеMusekinin Kanchou Tylor / Безответственный капитан Тайлор (1993)[1-26 из 26][BDRip][HWP]
Оригинальное название: 無責任艦長タイラー / Musekinin Kanchou Tylor
Английское название: Irresponsible Captain Tylor
Русское название: Безответственный капитан Тайлор
Страна: Япония
Год выпуска / период трансляции: с 25.01.1993 по 19.07.1993
Жанр: приключения, комедия, фантастика, сёнэн
Категория: TV
Количество эпизодов: 26
Продолжительность: 24 мин.
Режиссёр: Koichi Mashimo
Сценарий: Hiroyuki Kawasaki
Автор оригинала: Hitoshi Yoshioka
Композитор: Kenji Kawai
Сейю: Hiroko Kasahara as Azalyn, Kouji Tsujitani as Justy Ueki Tylor, Ikuo Nishikawa as Robert J. Hanner, Jouji Yanami as Dr. Kitaguchi, Masaaki Tsukada as Wang, Maya Okamoto as Harumi, Mika Kanai as
Emi Hanner / Yumi Hanner, Mugihito as Vice Admiral Mifune, Sho Hayami as Makoto Yamamoto, Toshihiko Seki as Ru Baraba Dom, Yuri Amano as Yuriko Star, Akio Nojima as Correspondence Soldier, Kotono Mitsuishi as Kim Kyung Hwa, Kousuke Okano as Jason, Mitsuo Iwata as Kojiro Sakai, Tomomichi Nishimura as Vice Admiral Fuji, Yuko Mita as Shia Has
Студия: Big West / Tatsunoko


Описание:
"Джасти Уэки Тайлор не может похвастаться ничем - ни профессиональными навыками, ни лидерскими качествами, ни быстротой мышления. Зато он обладает невероятным везением, которое перекрывает все недостатки, раз за разом выручая его в жизненных передрягах. По чистой случайности Тайлор оказывается спасителем любимых внучек самого генерала, командующего Космическим Флотом Объединённых Планет. И в благодарность за это тот производит бездельника Тайлора сразу в капитаны, назначив под его командование славный крейсер "Ветерок" (Soyokaze). Сбылась мечта Тайлора - блестящая карьера, беззаботное существование в почёте и достатке... Но старый генерал оказался не таким уж безумным. Крейсер "Ветерок", позор всего флота и свалка всех его человеческих отбросов, можно было назвать славным только в издёвку. Назначив Тайлора его капитаном, старик убил сразу двух зайцев - и дал "награду" за спасение внучек, и закрыл чёрную дыру, где дела были столь плачевны, что испортить что-либо уже не представлялось возможным. Но главное испытание ожидало впереди - только Тайлор вступил в командование, разразилась война с Раалгонской империей, и новоиспечённый капитан отправился во главе "Ветерка" на войну. Точнее, Тайлору приходится вести сразу две войны - одну с флотом Раалгона, другую - с собственным экипажем. Но благодушный Тайлор никогда не унывает, и удача всегда с ним..."
© Алексей Фадеев

Названия эпизодов:
01. The Mysterious Irresponsible Man
02. Hey, Ho! The Happy Pensioned Life!
03. The Ship Sets Sail, but Misgivings Remain
04. Enemy! Crisis! We Surrender!
05. Angel in White' Begins With an H
06. The Tale of the Lizard's Tail
07. A Gentleman's Word is His Bond
08. Life is Short, So Girls Should Kill
09. When You Wish Upon a Flower
10. Mind's Eyes Half Blind, Headed For a Rough Ride
11. In Demotion Does a Woman Bloom
12. The Day the Soyokaze Vanished
13. Be Prepared, Be Smart, or Be Lucky
14. Equation of Kindness
15. Shiny! Happy! (Deadly) Germs!
16. Strange Love
17. The Unjust Desert
18. A Place for Confession
19. Sleeping Beauty
20. Well Handled Solutions
21. Paco-Paco Junior!
22. Force of One
23. The Longest Day in Space
24. Snap! Snap! Crackle! Snap!
25. My Way is the Hard Way
26. For His Was Genius No Rule Could Contain


Источник рипа: BD-Rip [DECAY]
Автор рипа\энкод: Renmei Rei
Тип видео: Без хардсаба
Контейнер: AVI
Видео: XviD (1.2.1) | 720 x 540 пикселей | 23,976 кадра/сек | ~1800 Кбит/сек ;

Аудио:
RUS: AC-3 | 48.0 КГц | стерео | 256 Кбит/сек;
JAP:  AC-3 | 48.0 КГц | стерео | 256 Кбит/сек

Субтитры: русские \ внешние (SRT, SSA)
• серии 01-14 - Андрей Казанцев,  
• серии 15-23, 25 - Дмитрий Шиман ,
• серия 24 - Igor Nikolaevich ,
• серия 26 - Андрей aka avarach
Озвучивание: Е. Лурье [Suzaku]
Озвучено по переводу: Suzaku

MediaInfo: - показать
Общее
Полное имя                               : D:\Video\HWP\[AnimeReactor.RU] Musekinin Kanchou Tylor (TV)[1-26 of 26][BDRip][HWP]\Musekinin Kanchou Tylor [01 of 26][BDRip][720x540 XviD AC3x2][AnimeReactor.RU].avi
Формат                                   : AVI
Формат/Информация                        : Audio Video Interleave
Размер файла                             : 391 Мбайт
Продолжительность                        : 23 м.
Общий поток                              : 2326 Кбит/сек
Программа кодирования                    : VirtualDubModRus 1.5.10.2 (build 2542/release)
Библиотека кодирования                   : VirtualDubMod build 2542/release

Видео
Идентификатор                            : 0
Формат                                   : MPEG-4 Visual
Профиль формата                          : Advanced Simple@L5
Параметр BVOP формата                    : 2
Параметр QPel формата                    : Нет
Параметр GMC формата                     : Без точки перехода
Параметр матрицы формата                 : Default (H.263)
Идентификатор кодека                     : XVID
Идентификатор кодека/Подсказка           : XviD
Продолжительность                        : 23 м.
Битрейт                                  : 1800 Кбит/сек
Ширина                                   : 720 пикселей
Высота                                   : 540 пикселей
Соотношение сторон                       : 4:3
Частота кадров                           : 23,976 кадра/сек
Цветовое пространство                    : YUV
Субдискретизация насыщенности            : 4:2:0
Битовая глубина                          : 8 бит
Тип развёртки                            : Прогрессивная
Метод сжатия                             : С потерями
Бит/(Пиксели*Кадры)                      : 0.193
Размер потока                            : 302 Мбайт (77%)
Библиотека кодирования                   : XviD 1.2.1 (UTC 2008-12-04)

Аудио #1
Идентификатор                            : 1
Формат                                   : AC-3
Формат/Информация                        : Audio Coding 3
Расширение режима                        : CM (complete main)
Параметр Endianness формата              : Big
Идентификатор кодека                     : 2000
Продолжительность                        : 23 м.
Вид битрейта                             : Постоянный
Битрейт                                  : 256 Кбит/сек
Каналы                                   : 2 канала
Расположение каналов                     : Front: L R
Частота                                  : 48,0 КГц
Битовая глубина                          : 16 бит
Метод сжатия                             : С потерями
Размер потока                            : 43,0 Мбайт (11%)
Выравнивание                             : Разделение по промежуткам
Продолжительность промежутка             : 42  мс. (1,00 видеокадр)
Время предзагрузки промежутка            : 500  мс.
Заголовок                                : Russian [Suzacu]

Аудио #2
Идентификатор                            : 2
Формат                                   : AC-3
Формат/Информация                        : Audio Coding 3
Расширение режима                        : CM (complete main)
Параметр Endianness формата              : Big
Идентификатор кодека                     : 2000
Продолжительность                        : 23 м.
Вид битрейта                             : Постоянный
Битрейт                                  : 256 Кбит/сек
Каналы                                   : 2 канала
Расположение каналов                     : Front: L R
Частота                                  : 48,0 КГц
Битовая глубина                          : 16 бит
Метод сжатия                             : С потерями
Размер потока                            : 43,0 Мбайт (11%)
Выравнивание                             : Разделение по промежуткам
Продолжительность промежутка             : 42  мс. (1,00 видеокадр)
Время предзагрузки промежутка            : 500  мс.
Заголовок                                : Japanese [Original]


Скриншоты: - показать


Дядя Шарик
Релиз от
источник
ARRU & Netlab AnimaGroup & RenmeiRei & REBUILD ARRU
А вы ничего не забыли?
наверх

Последние поступления