ARRU





Ano Natsu de Matteru (2012)
Мы ждём тебя летом [01-12 из 12][BD-Rip 720p]   Bookmark


Скачать вход / регистрация
Тема на форуме Обсудить аниме (комментариев: 25)
Обсуждение раздачи (комментариев: 20)
ОписаниеAno Natsu de Matteru (2012) / Мы ждём тебя летом [01-12 из 12][BD-Rip 720p]
Оригинальное название: Ano Natsu de Matteru
Английское название: Waiting in the Summer
Русское название: Мы ждём тебя летом

Страна: Япония
Жанр: приключения, комедия, романтика.
Год выхода: 2012
Колличество серий: 12
Продолжительность: 24 мин
Студия:  J.C. Staff
Режиссёр: Нагай Тацуюки
Автор оригинала: Курода Ёсукэ

Описание:
Пронзительно-голубое небо. Белые облака неспешно плывут по нему и скрываются за линией зеленых гор, окружающих город. День за днем. Это забытое Богом место, где мало что случается, точнее, ничего не случается вообще. Но так было только до того момента, как одному местному жителю, по имени Кайто Кирисима, не стукнуло, как яблоко Ньютону, снять фильм. В это время в городе появляется Итика Такацуки, которая переворачивает его жизнь с ног на голову. Долгожданное лето скоро начнется

Названия эпизодов - показать

01. Лучше не надо...
02. С ней...
03. Она скажет...
04. Она потрясающая...
05. Она в главной роли.
06. Её соперница.
07. Её чувства.
08. Она в беде.
09. Она.
10. Её и наше.
11. Не улетай.
12. Ждём тебя летом.


Источник рипа: BD-Rip
Автор рипа\энкод: RACER RS
BD RE-тайминг звука: RACER RS
Тип видео: Без хардсаба
Контейнер: MKV
Видео: AVC1  core 120 High@L5.1 8 bit | 1280 x 720 (16:9) | 23,976 fps | 2500 kbps ;

Аудио:
RUS: AC3 | 48000Hz | 320 Kbps | 2ch
JAP: AC3 | 48000Hz | 320 Kbps | 2ch
Субтитры: Ru - soft [ASS]

Озвучивание: NASTR
Перевод: Advantage
Перевод: der zauberer
QC\песни: Матадор
Оформление: nismo
RE-Тайминг субтитров: RACER RS

MediaInfo: - показать
General
Unique ID                                : 192064336979746568569598791688737868582 (0x907E3EEBB031E4538DC0E189AFF14B26)
Complete name                            : I:\ARRU Rebuild HD\Ano Natsu de Matteru (BDrip 1280x720 AVC1 8 bit AC3x2)[Animereactor]\Ano Natsu de Matteru - 07 (BDrip 1280x720 AVC1 AC3x2) [MCA_&_Animereactor_ru].mkv
Format                                   : Matroska
Format version                           : Version 2
File size                                : 533 MiB
Duration                                 : 23mn 41s
Overall bit rate                         : 3 142 Kbps
Encoded date                             : UTC 2012-09-24 12:35:58
Writing application                      : mkvmerge v5.3.0 ('I could have danced' built on Feb  9 2012 10:38:07
Writing library                          : libebml v1.2.3 + libmatroska v1.3.0

Video
ID                                       : 1
Format                                   : AVC
Format/Info                              : Advanced Video Codec
Format profile                           : High@L5.1
Format settings, CABAC                   : No
Format settings, ReFrames                : 2 frames
Muxing mode                              : Header stripping
Codec ID                                 : V_MPEG4/ISO/AVC
Duration                                 : 23mn 41s
Bit rate                                 : 2 500 Kbps
Width                                    : 1 280 pixels
Height                                   : 720 pixels
Display aspect ratio                     : 16:9
Frame rate mode                          : Variable
Frame rate                               : 23.976 fps
Color space                              : YUV
Chroma subsampling                       : 4:2:0
Bit depth                                : 8 bits
Scan type                                : Progressive
Bits/(Pixel*Frame)                       : 0.113
Stream size                              : 414 MiB (78%)
Writing library                          : x264 core 120 r2146M bcd41db
Encoding settings                        : cabac=0 / ref=1 / deblock=1:0:0 / analyse=0x3:0x133 / me=hex / subme=10 / psy=1 / psy_rd=1.00:0.20 / mixed_ref=0 / me_range=16 / chroma_me=1 / trellis=2 / 8x8dct=1 / cqm=0 / deadzone=21,11 / fast_pskip=1 / chroma_qp_offset=-3 / threads=8 / sliced_threads=0 / nr=0 / decimate=1 / interlaced=0 / bluray_compat=0 / constrained_intra=0 / bframes=1 / b_pyramid=0 / b_adapt=2 / b_bias=0 / direct=3 / weightb=1 / open_gop=0 / weightp=2 / keyint=230 / keyint_min=23 / scenecut=40 / intra_refresh=0 / rc_lookahead=0 / rc=2pass / mbtree=1 / bitrate=2500 / ratetol=1.0 / qcomp=0.60 / qpmin=10 / qpmax=51 / qpstep=4 / cplxblur=20.0 / qblur=0.5 / ip_ratio=1.40 / aq=1:1.00
Default                                  : Yes
Forced                                   : No

Audio #1
ID                                       : 2
Format                                   : AC-3
Format/Info                              : Audio Coding 3
Mode extension                           : CM (complete main)
Format settings, Endianness              : Big
Muxing mode                              : Header stripping
Codec ID                                 : A_AC3
Duration                                 : 23mn 41s
Bit rate mode                            : Constant
Bit rate                                 : 320 Kbps
Channel(s)                               : 2 channels
Channel positions                        : Front: L R
Sampling rate                            : 48.0 KHz
Bit depth                                : 16 bits
Compression mode                         : Lossy
Stream size                              : 54.2 MiB (10%)
Title                                    : NASTR
Language                                 : Russian
Default                                  : Yes
Forced                                   : No

Audio #2
ID                                       : 3
Format                                   : AC-3
Format/Info                              : Audio Coding 3
Mode extension                           : CM (complete main)
Format settings, Endianness              : Big
Muxing mode                              : Header stripping
Codec ID                                 : A_AC3
Duration                                 : 23mn 41s
Bit rate mode                            : Constant
Bit rate                                 : 320 Kbps
Channel(s)                               : 2 channels
Channel positions                        : Front: L R
Sampling rate                            : 48.0 KHz
Bit depth                                : 16 bits
Compression mode                         : Lossy
Stream size                              : 54.2 MiB (10%)
Title                                    : Original
Language                                 : Japanese
Default                                  : No
Forced                                   : No

Text
ID                                       : 4
Format                                   : ASS
Codec ID                                 : S_TEXT/ASS
Codec ID/Info                            : Advanced Sub Station Alpha
Compression mode                         : Lossless
Title                                    : Advantage
Language                                 : Russian
Default                                  : No
Forced                                   : No


Скриншоты: - показать





Дядя Шарик
Релиз от
источник
ARRU & Moscow City Animegroup - MCA & REBUILD ARRU   &   RACER_RS
А вы ничего не забыли?
наверх

Последние поступления