ARRU





Kamisama no Memo-chou
Блокнот Бога (TV)(2011)[01-12 из 12][BD-Rip][720p]   Bookmark


Скачать вход / регистрация
Тема на форуме Обсудить аниме (комментариев: 21)
Обсуждение раздачи (комментариев: 14)
ОписаниеKamisama no Memo-chou / Блокнот Бога (TV)(2011)[01-12 из 12][BD-Rip][720p]
Оригинальное название:Kamisama no Memo-chou / 神様のメモ帳
Английское название: God's Notebook
Русское название: Блокнот Бога

Страна: Япония
Год выпуска / период трансляции: c 02.07.2011 по 24.09.2011
Жанр: детектив, драма
Количество эпизодов: 12
Продолжительность: 25 мин

Студия:
Режиссёр: Сакураби Кацуси
Автор оригинала: Сугии Хикару


Описание:
16-летний Наруми Фудзисима из-за частой смены школ превратился в тихого и нелюдимого парня, которого даже в уличной заварушке не сразу заметишь. Такому самое место в клубе цветоводства, куда его затащила одноклассница Аяка Синодзаки. Кстати, Аяка оказалась вовсе не ботаничкой, а веселой и энергичной девушкой. Приняв шефство над новым знакомым, она привела его в раменную Мин – сборище местной тусовки, где на третьем этаже живет Алиса – по виду 12-13 летняя девочка, сутками не покидающая кровать, заваленную плюшевыми мишками и окруженную мониторами. Кто бы сомневался – перед нами величайший детектив-хикикомори XXI века!

Впрочем, убежище Алисы – не мрачная берлога, а скорее «детективное бюро неудачников», где собирается ее верная бригада из парней-неформалов, не желающих принимать лицемерные условности общества. Волей-неволей примкнувший к ним Наруми вскоре убедился, с холодком внутри и каким-то чарующим восторгом, что на улицах, в «серой зоне» за пределами писаных законов кипит совсем другая жизнь – жесткая, безжалостная, но в то же время куда более откровенная и человечная. Понятия этой жизни записаны самим Богом, и беспредел карается тоже по Его воле – Алиса со товарищи лишь помогают ее исполнять!
© Hollow,World Art

Названия эпизодов: - показать


01. Two or Three Things I Know About Her
02. A Travel Bag and You
03. What Can I Do for the Two of Them
04. The Full Account of Hanamaru Soup
05. He Knows About Me
06. It Seems Like I`ll Lose
07. Everything I Can Do
08. I Don`t Believe in Fate
09. The 21 Balls of That Summer
10. Concerning You
11. Pieces of Me
12. You, Me, and Her




Качество рипа: BDRip
Автор рипа: Yousei-raws
Тип видео: Без хардсаба
Контейнер: mkv
Видео: AVC (х264) | 10 bit | 1280x720 pixels | 23.976 fps | ~2600Kbps

Внимание:
Видео 10-битное! Скачайте и установите свежую версию СССР или K-Lite (x32) и смотрите видео с помощью встроенного туда плеера MPC-HC,  или установите сборку KMP с использованием LAV Filters. Как еще один вариант, можно использовать VLC.

Аудио:
RUS: AC3 | 48000Hz | 192 Kbps | 2ch
JAP: Vorbis | 48000Hz | 256 Kbps | 2ch

Перевод: Dreamers Team (полные/вспомогательные)
Озвучивание: Persona99

MediaInfo: - показать

Общее
Формат                           : Matroska
Версия формата                   : Version 2
Размер файла                     : 1,07 Гбайт
Продолжительность                : 47 м.
Режим общего битрейта            : Переменный
Общий поток                      : 3201 Кбит/сек
Дата кодирования                 : UTC 2012-09-15 08:33:42
Программа кодирования            : mkvmerge v3.4.0 сборка от May 15 2010 09:38:20
Библиотека кодирования           : libebml v0.8.0 + libmatroska v0.9.0

Видео
Идентификатор                    : 1
Формат                           : AVC
Формат/Информация                : Advanced Video Codec
Профиль формата                  : High 10@L4.1
Параметр CABAC формата           : Да
Параметр ReFrames формата        : 9 кадров
Идентификатор кодека             : V_MPEG4/ISO/AVC
Продолжительность                : 47 м.
Битрейт                          : 2689 Кбит/сек
Ширина                           : 1280 пикселей
Высота                           : 720 пикселей
Соотношение сторон               : 16:9
Частота кадров                   : 23,976 кадра/сек
Цветовое пространство            : YUV
Субдискретизация насыщенности    : 4:2:0
Битовая глубина                  : 10 бит
Тип развёртки                    : Прогрессивная
Бит/(Пиксели*Кадры)              : 0.122
Размер потока                    : 917 Мбайт (84%)
Заголовок                        : рип от Yousei-raws
Библиотека кодирования           : x264 core 118 r2085+614 d1cc25d
Язык                             : Japanese
Default                          : Да
Forced                           : Нет

Аудио #1
Идентификатор                    : 2
Формат                           : AC-3
Формат/Информация                : Audio Coding 3
Расширение режима                : CM (complete main)
Идентификатор кодека             : A_AC3
Продолжительность                : 47 м.
Вид битрейта                     : Постоянный
Битрейт                          : 192 Кбит/сек
Каналы                           : 2 канала
Расположение каналов             : Front: L R
Частота                          : 48,0 КГц
Битовая глубина                  : 16 бит
Метод сжатия                     : С потерями
Размер потока                    : 65,5 Мбайт (6%)
Заголовок                        : Persona99
Язык                             : Russian
Default                          : Да
Forced                           : Нет

Аудио #2
Идентификатор                    : 3
Формат                           : Vorbis
Параметр Floor формата           : 1
Идентификатор кодека             : A_VORBIS
Продолжительность                : 47 м.
Вид битрейта                     : Переменный
Битрейт                          : 256 Кбит/сек
Каналы                           : 2 канала
Частота                          : 48,0 КГц
Метод сжатия                     : С потерями
Размер потока                    : 87,3 Мбайт (8%)
Заголовок                        : Original
Библиотека кодирования           : libVorbis (Schaufenugget) (20101101 (Schaufenugget))
Язык                             : Japanese
Default                          : Нет
Forced                           : Нет

Текст #1
Идентификатор                    : 4
Формат                           : ASS
Идентификатор кодека             : S_TEXT/ASS
Идентификатор кодека/Информация  : Advanced Sub Station Alpha
Метод сжатия                     : Без потерь
Заголовок                        : notes (Dreamers Team)
Язык                             : Russian
Default                          : Да
Forced                           : Нет

Текст #2
Идентификатор                    : 5
Формат                           : ASS
Идентификатор кодека             : S_TEXT/ASS
Идентификатор кодека/Информация  : Advanced Sub Station Alpha
Метод сжатия                     : Без потерь
Заголовок                        : Dreamers Team
Язык                             : Russian
Default                          : Нет
Forced                           : Нет


Скриншоты: - показать




От себя:
Данный релиз был предоставлен товарищем Aglenn, за что ему огромное спасибо.
Дядя Шарик
Релиз от
источник
ARRU & TF-AniGroup & REBUILD ARRU
А вы ничего не забыли?
наверх

Последние поступления