ARRU





Nisemonogatari
Истории подделок (2012)[01-11 из 11][BDRip][HWP]   Bookmark


Скачать вход / регистрация
Тема на форуме Обсудить аниме (комментариев: 910)
Обсуждение раздачи (комментариев: 55)
ОписаниеNisemonogatari / Истории подделок (2012)[01-11 из 11][BDRip][HWP]
Английское название: Nisemonogatari
Русское название: Истории подделок
Страна: Япония
Год выпуска: 2012
Жанр: приключения
Категория: TV
Количество эпизодов: >12
Продолжительность: 25 мин
Режиссёр: Симбо Акиюки
Автор оригинала: Нисио Исин
Студия:


Описание:
 Жил-был старшеклассник Коёми Арараги, нормальный такой парень, бывший вампир. Пережить ему пришлось столько, что друзей-ровесников у Коёми не было, зато было много подруг. Правда, как на грех, все подруги оказалось прокляты богами или демонами, но с кем не бывает! Пользуясь новыми силами и связями в оккультном мире, Арараги сумел помочь своим девушкам, а с любимой по имени Хитаги Сэндзёгахара проклятие, кажется, удалось снять полностью (хотя в минуты слабости герой в этом очень сомневается!). И вроде бы все стало хорошо, живи себе, поживай, к экзаменам готовься...
 Увы, в жизни так не бывает. Сначала пропал Мэмэ Осино, старый хиппи, он же гуру и духовный учитель. Потом до Коёми стали доходить слухи, что его младшие сестры Карэн и Цукихи, под влиянием братика объявившие себя «рыцарями правосудия» и даже заработавшие кличку «огненные сестры школы Цуга», слегка заигрались. Увы, по сравнению с такими фигурами, как Осино, да и сам Арараги, «огненные сестренки» – лишь подделки, пародия на серьезных специалистов. Имитируя бурную деятельность, Карэн и Цукихи среди фальшивок и иллюзий наткнулись на нечто серьезное и не очень дружелюбное. В итоге свои неприятности они получили, а брату опять расхлебывать!
© Hollow

Названия эпизодов:
01. Karen Bee, Part 1
02. Karen Bee, Part 2
03. Karen Bee, Part 3
04. Karen Bee, Part 4
05. Karen Bee, Part 5
06. Karen Bee, Part 6
07. Karen Bee, Part 7
08. Tsukihi Phoenix, Part 1
09. Tsukihi Phoenix, Part 2
10. Tsukihi Phoenix, Part 3
11. Tsukihi Phoenix, Part 4

Источник рипа: BD-Rip [Yoursei-raws]
Автор рипа\энкод: Renmei Rei
Тип видео: Без хардсаба
Контейнер: AVI
Видео: XviD (Build 65) | 720 x 404 пикселей | 23,976 кадра/сек | ~1500 Кбит/сек ;

Аудио:
RUS: AC-3 | 48.0 КГц | стерео | 224 Кбит/сек;
JAP:  AC-3 | 48.0 КГц | стерео | 256 Кбит/сек

Субтитры: русские\отдельно [SSA, SRT][Dreamers Team]
Озвучивание: Valkrist & Keneretta
По переводу: Hyakka Ryoran Fansubs

MediaInfo: - показать
Общее
Полное имя                               : R:\Video\HWP\[AnimeReactor.RU] Nisemonogatari (TV-2)[1-11 of 11[BDRip][HWP]\Nisemonogatari [01 of 11][BDRip][720x404 XviD AC3x2][Valkrist & Keneretta & AnimeReactor.RU].avi
Формат                                   : AVI
Формат/Информация                        : Audio Video Interleave
Размер файла                             : 382 Мбайт
Продолжительность                        : 26 м.
Общий поток                              : 2030 Кбит/сек
Программа кодирования                    : VirtualDubModRus 1.5.10.2 (build 2542/release)
Библиотека кодирования                   : VirtualDubMod build 2542/release

Видео
Идентификатор                            : 0
Формат                                   : MPEG-4 Visual
Профиль формата                          : Advanced Simple@L5
Параметр BVOP формата                    : 2
Параметр QPel формата                    : Нет
Параметр GMC формата                     : Без точки перехода
Параметр матрицы формата                 : Default (H.263)
Идентификатор кодека                     : XVID
Идентификатор кодека/Подсказка           : XviD
Продолжительность                        : 26 м.
Битрейт                                  : 1503 Кбит/сек
Ширина                                   : 720 пикселей
Высота                                   : 404 пикселя
Соотношение сторон                       : 16:9
Частота кадров                           : 23,976 кадра/сек
Цветовое пространство                    : YUV
Субдискретизация насыщенности            : 4:2:0
Битовая глубина                          : 8 бит
Тип развёртки                            : Прогрессивная
Метод сжатия                             : С потерями
Бит/(Пиксели*Кадры)                      : 0.216
Размер потока                            : 283 Мбайт (74%)
Библиотека кодирования                   : XviD 65

Аудио #1
Идентификатор                            : 1
Формат                                   : AC-3
Формат/Информация                        : Audio Coding 3
Расширение режима                        : CM (complete main)
Параметр Endianness формата              : Big
Идентификатор кодека                     : 2000
Продолжительность                        : 26 м.
Вид битрейта                             : Постоянный
Битрейт                                  : 256 Кбит/сек
Каналы                                   : 2 канала
Расположение каналов                     : Front: L R
Частота                                  : 48,0 КГц
Битовая глубина                          : 16 бит
Метод сжатия                             : С потерями
Размер потока                            : 48,1 Мбайт (13%)
Выравнивание                             : Разделение по промежуткам
Продолжительность промежутка             : 42  мс. (1,00 видеокадр)
Время предзагрузки промежутка            : 500  мс.
Заголовок                                : Russian [Valkrist & Keneretta]

Аудио #2
Идентификатор                            : 2
Формат                                   : AC-3
Формат/Информация                        : Audio Coding 3
Расширение режима                        : CM (complete main)
Параметр Endianness формата              : Big
Идентификатор кодека                     : 2000
Продолжительность                        : 26 м.
Вид битрейта                             : Постоянный
Битрейт                                  : 256 Кбит/сек
Каналы                                   : 2 канала
Расположение каналов                     : Front: L R
Частота                                  : 48,0 КГц
Битовая глубина                          : 16 бит
Метод сжатия                             : С потерями
Размер потока                            : 48,1 Мбайт (13%)
Выравнивание                             : Разделение по промежуткам
Продолжительность промежутка             : 42  мс. (1,00 видеокадр)
Время предзагрузки промежутка            : 500  мс.
Заголовок                                : Japanese [Original]


Скриншоты: - показать


Дядя Шарик
Релиз от
источник
ARRU & Moscow City Animegroup - MCA & RenmeiRei & REBUILD ARRU
А вы ничего не забыли?
наверх

Последние поступления