ARRU





Higurashi no Naku Koro ni Kai
Когда плачут цикады (TV-2)(2007)[01-24 из 24][DVD-Rip][576p]   Bookmark


Скачать вход / регистрация
Тема на форуме Обсудить аниме (комментариев: 1111)
Обсуждение раздачи (комментариев: 205)
ОписаниеHigurashi no Naku Koro ni Kai / Когда плачут цикады (TV-2)(2007)[01-24 из 24][DVD-Rip][576p]
Оригинальное название: Higurashi no Naku Koro ni Kai
Английское название: When They Cry 2nd Series
Русское название: Когда плачут цикады (второй сезон)

Страна: Япония
Трансляции:c 06.07.2007 по 18.12.2007
Жанр: мистерия, ужасы, психология, драма
Категория: TV
Количество эпизодов TV: 24
Продолжительность: 25 мин.
Возрастное ограничение: 16

Режиссёр: Кон Тиаки
Автор оригинала:Seventh Expansion
Студия:

Описание:
В том, что в тихом омуте водятся черти, юному Кэйити пришлось убедиться на своём собственном опыте. Переехав с родителями из города в живописную деревушку Хинамидзаву и подружившись в маленькой местной школе с очаровательными одноклассницами, он даже не подозревал, насколько обманчиво его представление об этом безмятежном крае и его обитателях. Но, как позднее выяснил Кэйити, за фасадом деревенской идиллии скрывается тёмная история зверских убийств и бесследных исчезновений, а под покровом благостной тиши действуют какие-то ужасные силы. Постепенно страшная тайна, скрытая в сельской глуши, стала приоткрываться перед его изумлёнными глазами...
© Алексей Фадеев, World Art


Названия эпизодов:
01. Reunion
02. Awakening Misfortune Chapter Part 1: Playing Tag
03. Awakening Misfortune Chapter Part 2: Powerless
04. Awakening Misfortune Chapter Part 3: Pre-established Harmony
05. Awakening Misfortune Chapter Part 4: The Great Hinamizawa Disaster
06. Massacre Chapter Part 1: Maze's Law
07. Massacre Chapter Part 2: The Way to Alter Fate
08. Massacre Chapter Part 3: Fluctuation
09. Massacre Chapter Part 4: Negotiation
10. Massacre Chapter Part 5: Confrontation
11. Massacre Chapter Part 6: Strong Will
12. Massacre Chapter Part 7: The Hinamizawa Syndrome
13. Massacre Chapter Part 8: Closure
14. Festival Accompanying Chapter Part 1: Miyo
15. Festival Accompanying Chapter Part 2: Wriggle
16. Festival Accompanying Chapter Part 3: The Beginning of the End
17. Festival Accompanying Chapter Part 4: Plot
18. Festival Accompanying Chapter Part 5: The Last Piece
19. Festival Accompanying Chapter Part 6: Beginning
20. Festival Accompanying Chapter Part 7: Trap
21. Festival Accompanying Chapter Part 8: 48 Hours
22. Festival Accompanying Chapter Part 9: Offence and Defence
23. Festival Accompanying Chapter Part 10: Bloodbath
24. Festival Accompanying Chapter Part 11: End



Источник рипа: DVDRip
Автор рипа\энкод: oneoneleven
Контейнер: MKV
Видео: AVC (x264) | 10 бит | 1024x576 пикселей | 23,976 кадра/сек | ~1500-2000 Кбит/сек ;

Внимание:
Видео 10-битное! Скачайте и установите свежую версию СССР или K-Lite (x32) и смотрите видео с помощью встроенного туда плеера MPC-HC,  или установите сборку KMP с использованием LAV Filters. Как еще один вариант, можно использовать VLC.


Аудио TV:
RUS: MP3 | 44.1 КГц | стерео | 160 kbps (1-6) | 128 kbps (7-24)
JAP: Vorbis | 48.0 КГц | стерео | ~256 Кбит/сек
Субтитры: sstyle, Haru-kaze
Озвучивание: Valkrist & Keneretta

MediaInfo: - показать

Общее
Формат                           : Matroska
Версия формата                   : Version 2
Размер файла                     : 382 Мбайт
Продолжительность                : 24 м.
Режим общего битрейта            : Переменный
Общий поток                      : 2184 Кбит/сек
Название фильма                  : 鬼隠し編·其の壱『ハジマリ』
Дата кодирования                 : UTC 2012-09-09 17:13:23
Программа кодирования            : mkvmerge v3.4.0 сборка от May 15 2010 09:38:20
Библиотека кодирования           : libebml v0.8.0 + libmatroska v0.9.0

Видео
Идентификатор                    : 1
Формат                           : AVC
Формат/Информация                : Advanced Video Codec
Профиль формата                  : High 10@L3.2
Параметр CABAC формата           : Да
Параметр ReFrames формата        : 8 кадров
Идентификатор кодека             : V_MPEG4/ISO/AVC
Продолжительность                : 24 м.
Битрейт                          : 1725 Кбит/сек
Ширина                           : 1024 пикселя
Высота                           : 576 пикселей
Соотношение сторон               : 16:9
Частота кадров                   : 23,976 кадра/сек
Цветовое пространство            : YUV
Субдискретизация насыщенности    : 4:2:0
Битовая глубина                  : 10 бит
Тип развёртки                    : Прогрессивная
Бит/(Пиксели*Кадры)              : 0.122
Размер потока                    : 302 Мбайт (79%)
Заголовок                        : рип oneoneleven
Библиотека кодирования           : x264 core 122 r2184 5c85e0a
Язык                             : Japanese
Default                          : Нет
Forced                           : Нет
Коэффициенты матрицы             : BT.470-6 System B, BT.470-6 System G, BT.601-6 625, BT.1358 625, BT.1700 625 PAL, BT.1700 625 SECAM, IEC 61966-2-4 601

Аудио #1
Идентификатор                    : 2
Формат                           : MPEG Audio
Версия формата                   : Version 1
Профиль формата                  : Layer 3
Режим                            : Joint stereo
Идентификатор кодека             : A_MPEG/L3
Идентификатор кодека/Подсказка   : MP3
Продолжительность                : 24 м.
Вид битрейта                     : Постоянный
Битрейт                          : 160 Кбит/сек
Каналы                           : 2 канала
Частота                          : 44,1 КГц
Метод сжатия                     : С потерями
Размер потока                    : 28,0 Мбайт (7%)
Заголовок                        : Valkrist & Keneretta
Язык                             : Russian
Default                          : Да
Forced                           : Нет

Аудио #2
Идентификатор                    : 3
Формат                           : Vorbis
Параметр Floor формата           : 1
Идентификатор кодека             : A_VORBIS
Продолжительность                : 24 м.
Вид битрейта                     : Переменный
Битрейт                          : 256 Кбит/сек
Каналы                           : 2 канала
Частота                          : 48,0 КГц
Метод сжатия                     : С потерями
Размер потока                    : 44,8 Мбайт (12%)
Заголовок                        : Original
Библиотека кодирования           : aoTuV 20110424 (UTC 2011-04-24)
Язык                             : Japanese
Default                          : Нет
Forced                           : Нет

Текст
Идентификатор                    : 4
Формат                           : ASS
Идентификатор кодека             : S_TEXT/ASS
Идентификатор кодека/Информация  : Advanced Sub Station Alpha
Метод сжатия                     : Без потерь
Заголовок                        : sstyle, Haru-kaze
Язык                             : Russian
Default                          : Нет
Forced                           : Нет



Скриншоты: - показать




От себя:
Данный релиз был предоставлен товарищем oneoneleven, за что ему огромное спасибо.
Дядя Шарик
Релиз от
источник
ARRU & Moscow City Animegroup - MCA & REBUILD ARRU
А вы ничего не забыли?
наверх

Последние поступления