ARRU





Higurashi no Naku Koro Ni
Когда плачут цикады (TV-1)(2006)[01-26 из 26+OVA][DVD-Rip][576p]   Bookmark


Скачать вход / регистрация
Тема на форуме Обсудить аниме (комментариев: 1111)
Обсуждение раздачи (комментариев: 38)
ОписаниеHigurashi no Naku Koro Ni / Когда плачут цикады (TV-1)(2006)[01-26 из 26+OVA][DVD-Rip][576p]
Оригинальное название: Higurashi no Naku Koro Ni
Английское название: When They Cry - Higurashi
Русское название: Когда плачут цикады

Страна: Япония
Трансляции: c 05.04.2006 по 27.09.2006
Жанр: мистерия, ужасы, психология, драма
Категория: TV
Количество эпизодов TV: 26
Продолжительность: 25 мин.
Количество эпизодов OVA: 1
Продолжительность: 25 мин.

Режиссёр: Кон Тиаки
Автор оригинала:Рюкиси07
Студия:

Описание:
В том, что в тихом омуте водятся черти, юному Кэйити пришлось убедиться на своём собственном опыте. Переехав с родителями из города в живописную деревушку Хинамидзаву и подружившись в маленькой местной школе с очаровательными одноклассницами, он даже не подозревал, насколько обманчиво его представление об этом безмятежном крае и его обитателях. Но, как позднее выяснил Кэйити, за фасадом деревенской идиллии скрывается тёмная история зверских убийств и бесследных исчезновений, а под покровом благостной тиши действуют какие-то ужасные силы. Постепенно страшная тайна, скрытая в сельской глуши, стала приоткрываться перед его изумлёнными глазами...
© Алексей Фадеев, World Art


Названия эпизодов:
01. The Hidden Demon Chapter - Part 1 - Beginning
02. The Hidden Demon Chapter - Part 2 - Secret
03. The Hidden Demon Chapter - Part 3 - Suspicion
04. The Hidden Demon Chapter - Part 4 - Distortion
05. The Floating Cotton Chapter - Part 1 – Jealousy
06. The Floating Cotton Chapter - Part 2 - Takano
07. The Floating Cotton Chapter - Part 3 - Lies
08. The Floating Cotton Chapter - Part 4 - Apologies
09. The Cursed Murder Chapter - Part 1 - Elder Brother
10. The Cursed Murder Chapter - Part 2 - Bond
11. The Cursed Murder Chapter - Part 3 - Boundary
12. The Cursed Murder Chapter - Part 4 - Something Lost
13. The Cursed Murder Chapter - Part 5 - Apology
14. The Time Wasting Chapter - Part 1 - Hinamizawa
15. The Time Wasting Chapter - Part 2 - Omen
16. The Detective Chapter - Part 1 - First Love
17. The Detective Chapter - Part 2 - Distinction
18. The Detective Chapter - Part 3 - Demon's Blood
19. The Detective Chapter - Part 4 - Retaliation
20. The Detective Chapter - Part 5 - Cold Hands
21. The Detective Chapter - Part 6 - Conviction
22. The Atonement Chapter - Part 1 - Happiness
23. The Atonement Chapter - Part 2 - A Place to Return to
24. The Atonement Chapter - Part 3 - File No.34
25. The Atonement Chapter - Part 4 - Earth Invasion
26. The Atonement Chapter - Part 5 - Retake
OVA. The Cat Killing Chapter


Источник рипа: DVDRip
Автор рипа\энкод: oneoneleven
Контейнер: MKV
Видео: AVC (x264) | 10 бит | 1024x576 пикселей | 23,976 кадра/сек | ~2150 Кбит/сек ;

Внимание:
Видео 10-битное! Скачайте и установите свежую версию СССР или K-Lite (x32) и смотрите видео с помощью встроенного туда плеера MPC-HC,  или установите сборку KMP с использованием LAV Filters. Как еще один вариант, можно использовать VLC.

Аудио TV:
RUS: MP3 | 44.1 КГц | стерео | 192 Кбит/сек |
JAP: Vorbis | 48.0 КГц | стерео | ~256 Кбит/сек
Субтитры: Тюлень, Kaito, Freestiler, Eonwe, Valkrist
Озвучивание: Valkrist

MediaInfo TV: - показать

Общее
Формат                           : Matroska
Версия формата                   : Version 2
Размер файла                     : 422 Мбайт
Продолжительность                : 23 м.
Режим общего битрейта            : Переменный
Общий поток                      : 2491 Кбит/сек
Название фильма                  : 鬼隠し編·其の壱『ハジマリ』
Дата кодирования                 : UTC 2012-09-09 17:02:08
Программа кодирования            : mkvmerge v3.4.0 сборка от May 15 2010 09:38:20
Библиотека кодирования           : libebml v0.8.0 + libmatroska v0.9.0

Видео
Идентификатор                    : 1
Формат                           : AVC
Формат/Информация                : Advanced Video Codec
Профиль формата                  : High 10@L3.2
Параметр CABAC формата           : Да
Параметр ReFrames формата        : 8 кадров
Идентификатор кодека             : V_MPEG4/ISO/AVC
Продолжительность                : 23 м.
Битрейт                          : 1993 Кбит/сек
Ширина                           : 1024 пикселя
Высота                           : 576 пикселей
Соотношение сторон               : 16:9
Частота кадров                   : 23,976 кадра/сек
Цветовое пространство            : YUV
Субдискретизация насыщенности    : 4:2:0
Битовая глубина                  : 10 бит
Тип развёртки                    : Прогрессивная
Бит/(Пиксели*Кадры)              : 0.141
Размер потока                    : 338 Мбайт (80%)
Заголовок                        : rip oneoneleven
Библиотека кодирования           : x264 core 120 r2120M 0c7dab9
Язык                             : Japanese
Default                          : Да
Forced                           : Нет
Коэффициенты матрицы             : BT.470-6 System B, BT.470-6 System G, BT.601-6 625, BT.1358 625, BT.1700 625 PAL, BT.1700 625 SECAM, IEC 61966-2-4 601

Аудио #1
Идентификатор                    : 2
Формат                           : MPEG Audio
Версия формата                   : Version 1
Профиль формата                  : Layer 3
Режим                            : Joint stereo
Расширение режима                : MS Stereo
Идентификатор кодека             : A_MPEG/L3
Идентификатор кодека/Подсказка   : MP3
Продолжительность                : 23 м.
Вид битрейта                     : Постоянный
Битрейт                          : 192 Кбит/сек
Каналы                           : 2 канала
Частота                          : 44,1 КГц
Метод сжатия                     : С потерями
Размер потока                    : 32,5 Мбайт (8%)
Заголовок                        : Valkrist
Библиотека кодирования           : LAME3.98.2
Язык                             : Russian
Default                          : Да
Forced                           : Нет

Аудио #2
Идентификатор                    : 3
Формат                           : Vorbis
Параметр Floor формата           : 1
Идентификатор кодека             : A_VORBIS
Продолжительность                : 23 м.
Вид битрейта                     : Переменный
Битрейт                          : 256 Кбит/сек
Каналы                           : 2 канала
Расположение каналов             : Front: L R
Частота                          : 48,0 КГц
Метод сжатия                     : С потерями
Размер потока                    : 43,4 Мбайт (10%)
Заголовок                        : Original
Библиотека кодирования           : aoTuV 20110424 (UTC 2011-04-24)
Язык                             : Japanese
Default                          : Нет
Forced                           : Нет

Текст
Идентификатор                    : 4
Формат                           : UTF-8
Идентификатор кодека             : S_TEXT/UTF8
Идентификатор кодека/Информация  : UTF-8 Plain Text
Заголовок                        : Тюлень, Kaito, Freestiler, Eonwe, Valkrist
Язык                             : Russian
Default                          : Нет
Forced                           : Нет



Аудио OVA:
RUS: AC3 | 48.0 КГц | стерео | 192 Кбит/сек  
JAP: Vorbis | 48.0 КГц | стерео | ~256 Кбит/сек

Озвучивание: Valkrist & Keneretta

MediaInfo OVA: - показать

Общее
Формат                           : Matroska
Версия формата                   : Version 2
Размер файла                     : 354 Мбайт
Продолжительность                : 23 м.
Режим общего битрейта            : Переменный
Общий поток                      : 2138 Кбит/сек
Название фильма                  : 鬼隠し編·其の壱『ハジマリ』
Дата кодирования                 : UTC 2012-09-09 17:40:34
Программа кодирования            : mkvmerge v3.4.0 сборка от May 15 2010 09:38:20
Библиотека кодирования           : libebml v0.8.0 + libmatroska v0.9.0

Видео
Идентификатор                    : 1
Формат                           : AVC
Формат/Информация                : Advanced Video Codec
Профиль формата                  : High 10@L3.2
Параметр CABAC формата           : Да
Параметр ReFrames формата        : 8 кадров
Идентификатор кодека             : V_MPEG4/ISO/AVC
Продолжительность                : 23 м.
Битрейт                          : 1647 Кбит/сек
Ширина                           : 1024 пикселя
Высота                           : 576 пикселей
Соотношение сторон               : 16:9
Частота кадров                   : 23,976 кадра/сек
Цветовое пространство            : YUV
Субдискретизация насыщенности    : 4:2:0
Битовая глубина                  : 10 бит
Тип развёртки                    : Прогрессивная
Бит/(Пиксели*Кадры)              : 0.116
Размер потока                    : 272 Мбайт (77%)
Заголовок                        : рип oneoneleven
Библиотека кодирования           : x264 core 122 r2184 5c85e0a
Язык                             : Japanese
Default                          : Нет
Forced                           : Нет
Коэффициенты матрицы             : BT.470-6 System B, BT.470-6 System G, BT.601-6 625, BT.1358 625, BT.1700 625 PAL, BT.1700 625 SECAM, IEC 61966-2-4 601

Аудио #1
Идентификатор                    : 2
Формат                           : AC-3
Формат/Информация                : Audio Coding 3
Расширение режима                : CM (complete main)
Идентификатор кодека             : A_AC3
Продолжительность                : 23 м.
Вид битрейта                     : Постоянный
Битрейт                          : 192 Кбит/сек
Каналы                           : 2 канала
Расположение каналов             : Front: L R
Частота                          : 48,0 КГц
Битовая глубина                  : 16 бит
Метод сжатия                     : С потерями
Размер потока                    : 31,8 Мбайт (9%)
Заголовок                        : Valkrist & Keneretta
Язык                             : Russian
Default                          : Да
Forced                           : Нет

Аудио #2
Идентификатор                    : 3
Формат                           : Vorbis
Параметр Floor формата           : 1
Идентификатор кодека             : A_VORBIS
Продолжительность                : 23 м.
Вид битрейта                     : Переменный
Битрейт                          : 256 Кбит/сек
Каналы                           : 2 канала
Частота                          : 48,0 КГц
Метод сжатия                     : С потерями
Размер потока                    : 42,3 Мбайт (12%)
Заголовок                        : Original
Библиотека кодирования           : aoTuV 20110424 (UTC 2011-04-24)
Язык                             : Japanese
Default                          : Нет
Forced                           : Нет



Скриншоты: - показать




От себя:
Данный релиз был предоставлен товарищем oneoneleven, за что ему огромное спасибо.
Дядя Шарик
Релиз от
источник
ARRU & Moscow City Animegroup - MCA & REBUILD ARRU
А вы ничего не забыли?
наверх

Последние поступления