ARRU





Zero no Tsukaima F
Подручный Луизы-Нулизы (четвертый сезон)(TV)(2012)[01-12 из 12][BD-Rip][HWP]   Bookmark


Скачать вход / регистрация
Тема на форуме Обсудить аниме (комментариев: 918)
Обсуждение раздачи (комментариев: 53)
ОписаниеZero no Tsukaima F / Подручный Луизы-Нулизы (четвертый сезон)(TV)(2012)[01-12 из 12][BD-Rip][HWP]
Оригинальное название: Zero no Tsukaima TV 4
Русское название: Подручный Луизы-Нулизы
Страна: Япония
Год выпуска / период трансляции: 07.01.2012 по 24.03.2012
Жанр: комедия, романтика, фэнтези, этти
Количество эпизодов: 12
Продолжительность: 25 мин
Студия:
Режиссёр:  Ивасаки Ёсиаки
Автор оригинала: Ямагути Нобору
Рейтинг ARRU:

Описание:
Хрестоматийный японский школьник Сайто Хирага в результате неудачного (это еще как посмотреть!) заклятия начинающей волшебницы попал на магический континент Халкегиния, где за короткое время сделал блестящую карьеру. Из простого слуги-фамильяра парень превратился в храброго рыцаря, учтивого кавалера и особу, приближенную к сильным мира сего. Непростые отношения с хозяйкой, а ныне любимой Луизой де ла Вальер еще больше осложняются тем, что волею судьбы Сайто обрел гарем, в который входит чуть ли не половина героинь сериала. В общем, тучи над головой бедняги сгущаются, а интуиция подсказывает, что спасение – в очередной заварушке, ибо трудности сближают, а война вообще все спишет!

В королевстве Тристейн, где поселился Хирага, трудности всегда в изобилии – не успели закончить конфликт с Альбионом на западе, как подтягивается угроза с юга, от куда более могущественной Галлии. Совсем недавно герои выяснили, что враг использует запретную магию, потому королева Генриетта (близкая подруга Сайто и Луизы) посылает делегацию в Святой город Ромалию, чтобы заручиться поддержкой Папы, высшего духовного авторитета. Как выяснилось, посольство ждали, ибо наступило «время разбрасывать камни». Разумеется, все стороны вынашивают планы внутри планов, но мы-то знаем, кто на деле сыграет главную роль в грандиозном завершении сюжета!
© Hollow

Названия эпизодов:

01. Louise of the Holy Kingdom
02. The Maidens of Akuireia
03. The Insanity of the King of Ignorance
04. The Queen`s Reward
05. De Ornielle`s Maidens
06. A Chaotic Hot Spring
07. The Elf of the Desert
08. Escape Through the Sewer
09. Tabitha`s Coronation
10. Awakening of the Disaster
11. Louise`s Choice
12. The Familiar of Zero


Источник рипа: BD-Rip [Yoursei-raws]
Автор рипа\энкод: Renmei Rei
Тип видео: Без хардсаба
Контейнер: AVI
Видео: XviD (Build 65) | 720 x 404 пикселей | 23,976 кадра/сек | ~1500 Кбит/сек ;

Аудио:
RUS: AC-3 | 48.0 КГц | стерео | 256 Кбит/сек;
JAP:  AC-3 | 48.0 КГц | стерео | 256 Кбит/сек

Субтитры: русские\отдельно [SRT][ТехноМаг & Dragon]
Перевод: ТехноМаг & Dragon
Озвучивание: Valkrist & Yuuhi

MediaInfo: - показать
Общее
Полное имя                               : R:\Video\HWP\Zero no Tsukaima F\Zero no Tsukaima F [01 of 12][720 x404 XviD AC3x2][Valkrist & Yuuhi & Animereactor.ru].avi
Формат                                   : AVI
Формат/Информация                        : Audio Video Interleave
Размер файла                             : 365 Мбайт
Продолжительность                        : 25 м.
Общий поток                              : 2026 Кбит/сек
Программа кодирования                    : VirtualDubModRus 1.5.10.2 (build 2542/release)
Библиотека кодирования                   : VirtualDubMod build 2542/release

Видео
Идентификатор                            : 0
Формат                                   : MPEG-4 Visual
Профиль формата                          : Advanced Simple@L5
Параметр BVOP формата                    : 2
Параметр QPel формата                    : Нет
Параметр GMC формата                     : Без точки перехода
Параметр матрицы формата                 : Default (H.263)
Идентификатор кодека                     : XVID
Идентификатор кодека/Подсказка           : XviD
Продолжительность                        : 25 м.
Битрейт                                  : 1500 Кбит/сек
Ширина                                   : 720 пикселей
Высота                                   : 404 пикселя
Соотношение сторон                       : 16:9
Частота кадров                           : 23,976 кадра/сек
Цветовое пространство                    : YUV
Субдискретизация насыщенности            : 4:2:0
Битовая глубина                          : 8 бит
Тип развёртки                            : Прогрессивная
Метод сжатия                             : С потерями
Бит/(Пиксели*Кадры)                      : 0.215
Размер потока                            : 270 Мбайт (74%)
Библиотека кодирования                   : XviD 65

Аудио #1
Идентификатор                            : 1
Формат                                   : AC-3
Формат/Информация                        : Audio Coding 3
Расширение режима                        : CM (complete main)
Параметр Endianness формата              : Big
Идентификатор кодека                     : 2000
Продолжительность                        : 25 м.
Вид битрейта                             : Постоянный
Битрейт                                  : 256 Кбит/сек
Каналы                                   : 2 канала
Расположение каналов                     : Front: L R
Частота                                  : 48,0 КГц
Битовая глубина                          : 16 бит
Метод сжатия                             : С потерями
Размер потока                            : 46,1 Мбайт (13%)
Выравнивание                             : Разделение по промежуткам
Продолжительность промежутка             : 42  мс. (1,00 видеокадр)
Время предзагрузки промежутка            : 500  мс.
Заголовок                                : Russian [Valkrist & Yuuhi]

Аудио #2
Идентификатор                            : 2
Формат                                   : AC-3
Формат/Информация                        : Audio Coding 3
Расширение режима                        : CM (complete main)
Параметр Endianness формата              : Big
Идентификатор кодека                     : 2000
Продолжительность                        : 25 м.
Вид битрейта                             : Постоянный
Битрейт                                  : 256 Кбит/сек
Каналы                                   : 2 канала
Расположение каналов                     : Front: L R
Частота                                  : 48,0 КГц
Битовая глубина                          : 16 бит
Метод сжатия                             : С потерями
Размер потока                            : 46,1 Мбайт (13%)
Выравнивание                             : Разделение по промежуткам
Продолжительность промежутка             : 42  мс. (1,00 видеокадр)
Время предзагрузки промежутка            : 500  мс.
Заголовок                                : Japanese [Original]


Скриншоты: - показать


Дядя Шарик
Релиз от
источник
ARRU & Moscow City Animegroup - MCA & RenmeiRei & REBUILD ARRU
А вы ничего не забыли?
наверх

Последние поступления