ARRU





Dantalian no Shoka TV (2011)
Таинственная библиотека Данталиан [01-12 of 12] [BD-Rip[HWP] (GSG)   Bookmark


Скачать вход / регистрация
Тема на форуме Обсудить аниме (комментариев: 76)
Обсуждение раздачи (комментариев: 26)
ОписаниеDantalian no Shoka TV (2011) / Таинственная библиотека Данталиан [01-12 of 12] [BD-Rip[HWP] (GSG)
Оригинальное название: Dantalian no Shoka
Английское название: The Mystic Archives of Dantalian
Русское название: Таинственная библиотека Данталиан

Страна: Япония
Жанр: приключения, мистика, фэнтези, Action
Год выхода: 2011
Колличество серий: 12
Продолжительность: 25 мин
Студия: GAINAX
Режиссёр: Уэмура Ютака
Автор оригинала: Микумо Гакуто

Описание:
История рассказывает нам историю о молодом человеке по имени Хью, который унаследовал затхлую старую недвижимость, а также коллекцию книг от своего деда. Когда Хью идет осматривать свои владенья, он встречает странную девушку Далиан, девушка была в черном платье и спокойно читала в подвале. Как оказалось, Далиан управляет Вратами в Мистическую библиотеку Данаталиана, где хранятся запрещенные книги мудрости Демонов.
GainaX экранизируют серию книг под названием Dantalian no Shoka.

Olfor world-art.ru

Названия эпизодов - показать

01. Pop-up Book
02. Book of Fetus
03. Book of Wisdom / Queen of the Night
04. Book of Soul Exchange
05. The Magicians Daughter
06. The Book Burner
07. Parfumer
08. Book of Equivalence / Book of Connection
09. Book of Twilight
10. Phantom Score
11. Bibliotheca Razielis Archangeli
12. Song of the Unknown Tomorrow


Источник рипа: BD-Rip
Автор рипа\энкод: RACER RS
BD RE-тайминг звука: RACER RS
Тип видео: Без хардсаба
Контейнер: AVI
Видео: Xvid 64 | 720 x 404 (16:9) | 23,976 fps | 1450 kbps ;

Аудио:
RUS: AC3 | 48000Hz | 192 Kbps | 2ch
JAP: AC3 | 48000Hz | 256 Kbps | 2ch
Субтитры: Ru - soft [ASS] и [SRT]

Озвучивание: Persona99
Перевод: Nati
Редактор: Reaper
RE-Тайминг субтитров: RACER RS

MediaInfo: - показать

General
Complete name                            : I:\ARRU Rebuild\Dantalian no Shoka (TV) [BD-Rip HWP][Animereactor]\Dantalian no Shoka - [11 of 12] (XviD 720x404 AC3x2) [Persona99 & AnimeReactor].avi
Format                                   : AVI
Format/Info                              : Audio Video Interleave
File size                                : 333 MiB
Duration                                 : 24mn 22s
Overall bit rate                         : 1 912 Kbps
Writing application                      : VirtualDubMod 1.5.10.2 (build 2540/release)
Writing library                          : VirtualDubMod build 2540/release

Video
ID                                       : 0
Format                                   : MPEG-4 Visual
Format profile                           : Advanced Simple@L5
Format settings, BVOP                    : 2
Format settings, QPel                    : No
Format settings, GMC                     : No warppoints
Format settings, Matrix                  : Default (H.263)
Codec ID                                 : XVID
Codec ID/Hint                            : XviD
Duration                                 : 24mn 22s
Bit rate                                 : 1 450 Kbps
Width                                    : 720 pixels
Height                                   : 404 pixels
Display aspect ratio                     : 16:9
Frame rate                               : 23.976 fps
Color space                              : YUV
Chroma subsampling                       : 4:2:0
Bit depth                                : 8 bits
Scan type                                : Progressive
Compression mode                         : Lossy
Bits/(Pixel*Frame)                       : 0.208
Stream size                              : 253 MiB (76%)
Writing library                          : XviD 64

Audio #1
ID                                       : 1
Format                                   : AC-3
Format/Info                              : Audio Coding 3
Mode extension                           : CM (complete main)
Format settings, Endianness              : Big
Codec ID                                 : 2000
Duration                                 : 24mn 20s
Bit rate mode                            : Constant
Bit rate                                 : 192 Kbps
Channel(s)                               : 2 channels
Channel positions                        : Front: L R
Sampling rate                            : 48.0 KHz
Bit depth                                : 16 bits
Compression mode                         : Lossy
Stream size                              : 33.4 MiB (10%)
Alignment                                : Split accross interleaves
Interleave, duration                     : 42 ms (1.00 video frame)
Interleave, preload duration             : 500 ms
Title                                    : Persona99 [Russian]

Audio #2
ID                                       : 2
Format                                   : AC-3
Format/Info                              : Audio Coding 3
Mode extension                           : CM (complete main)
Format settings, Endianness              : Big
Codec ID                                 : 2000
Duration                                 : 24mn 22s
Bit rate mode                            : Constant
Bit rate                                 : 256 Kbps
Channel(s)                               : 2 channels
Channel positions                        : Front: L R
Sampling rate                            : 48.0 KHz
Bit depth                                : 16 bits
Compression mode                         : Lossy
Stream size                              : 44.6 MiB (13%)
Alignment                                : Split accross interleaves
Interleave, duration                     : 42 ms (1.00 video frame)
Interleave, preload duration             : 500 ms
Title                                    : Original [Japanese]




Скриншоты: - показать





Дядя Шарик
Релиз от
источник
ARRU & Get Smart & REBUILD ARRU   &   RACER_RS
А вы ничего не забыли?
наверх

Последние поступления