ARRU





Working`!!
Работа`!! (второй сезон)(2011)[1-13 из 13][BDRip][HWP]   Bookmark


Скачать вход / регистрация
Тема на форуме Обсудить аниме (комментариев: 253)
Обсуждение раздачи (комментариев: 29)
ОписаниеWorking`!! / Работа`!! (второй сезон)(2011)[1-13 из 13][BDRip][HWP]
Оригинальное название: Working'!! / ワーキング!!
Английское название: Working'!!
Русское название: Работа!! [ТВ-2]
Страна: Япония
Выпуск: c 01.10.2011
Жанр: комедия, повседневность
Категория: TV
Количество эпизодов: 13
Продолжительность: 25 мин.
Режиссёр: Оцуки Ацуси
Снято по манге: Working!!
Автор оригинала: Такацу Карино
Студия:


Описание:
  Жизнь в семейном ресторанчике «Вагнария», что на острове Хоккайдо, все так же бьет ключом, ибо посетителей хватает, прибыль идет, а штатное расписание наконец-то укомплектовано с избытком! Сначала в официанты пришел знатный «миниконщик» Сота Таканаси, а потом главный менеджер Хёго Ото привел таинственную беглянку Аой Ямада. И ничего, что сам Ото в ресторане появляется урывками, посвящая все время поискам пропавшей жены. Заведению вполне хватает ненавязчивого руководства его помощницы Кёко Сирафудзи – бывшей бандитки, прочно вставшей на путь исправления и дегустации местных фирменных десертов.
  Сота Таканаси, закаленный жизнью с четырьмя сестрами, не потерялся в преимущественно женском коллективе. Парень, обожающий все маленькое и милое, помимо ежедневного восхищения малышкой Попурой, не отворачивается и от других коллег. Сота дал слово излечить симпатичную Махиру Инами от андрофобии – и успешно движется к цели, уже на полпути завоевав девичье сердечко. Не забывает он и о воспитании Аой – девчонки умной и вроде бы непростой, но больно уж ленивой и, скажем так, склонной к выдумкам. Не отстают и остальные сотрудники, ибо все они – люди интересные, а наблюдать за реальной жизнью вообще интереснее всего!
© Hollow

Названия эпизодов:
01. Popura`s Nature
02. Ideal Family Planning
03. I`m in a Slump
04. Manhole Spiral
05. Wagnaria`s Big
06. Hired, Fired, Tired
07. Bad Tuning of Love
08. Oh, Sister
09. Love is So Global
10. Cellphone, No Problem
11. It`s Resolve, Is That a Problem?
12. Daisy Dies
13. Farewell, Popura



Источник рипа: BD-Rip [Yoursei-raws]
Автор рипа\энкод: Renmei Rei
Тип видео: Без хардсаба
Контейнер: AVI
Видео: XviD (Build 65) | 720 x 404 пикселей | 23,976 кадра/сек | ~1500 Кбит/сек ;

Аудио:
RUS1: AC-3 | 48.0 КГц | стерео | 256 Кбит/сек • одноголосый закадровый [Vulpes Vulpes];
RUS2: AC-3 | 48.0 КГц | стерео | 256 Кбит/сек • одноголосый закадровый [JeFerSon];
JAP:  AC-3 | 48.0 КГц | стерео | 256 Кбит/сек • оригинал

Субтитры: русские | отдельно [SRT][Dreamers Team]

MediaInfo: - показать
Общее
Полное имя                               : R:\Video\HWP\[AnimeReactor.RU] Working'!! (TV-2)[01-13 of 13][BDRip][HWP]\Working'!! [01 of 13][BDrip][720x404 XviD AC3x3][JeFerSon & Vulpes Vulpes & AnimeReactor.RU].avi
Формат                                   : AVI
Формат/Информация                        : Audio Video Interleave
Размер файла                             : 398 Мбайт
Продолжительность                        : 24 м.
Общий поток                              : 2289 Кбит/сек
Программа кодирования                    : VirtualDubModRus 1.5.10.2 (build 2542/release)
Библиотека кодирования                   : VirtualDubMod build 2542/release

Видео
Идентификатор                            : 0
Формат                                   : MPEG-4 Visual
Профиль формата                          : Advanced Simple@L5
Параметр BVOP формата                    : 2
Параметр QPel формата                    : Нет
Параметр GMC формата                     : Без точки перехода
Параметр матрицы формата                 : Default (H.263)
Идентификатор кодека                     : XVID
Идентификатор кодека/Подсказка           : XviD
Продолжительность                        : 24 м.
Битрейт                                  : 1502 Кбит/сек
Ширина                                   : 720 пикселей
Высота                                   : 404 пикселя
Соотношение сторон                       : 16:9
Частота кадров                           : 23,976 кадра/сек
Цветовое пространство                    : YUV
Субдискретизация насыщенности            : 4:2:0
Битовая глубина                          : 8 бит
Тип развёртки                            : Прогрессивная
Метод сжатия                             : С потерями
Бит/(Пиксели*Кадры)                      : 0.215
Размер потока                            : 261 Мбайт (66%)
Библиотека кодирования                   : XviD 65

Аудио #1
Идентификатор                            : 1
Формат                                   : AC-3
Формат/Информация                        : Audio Coding 3
Расширение режима                        : CM (complete main)
Параметр Endianness формата              : Big
Идентификатор кодека                     : 2000
Продолжительность                        : 24 м.
Вид битрейта                             : Постоянный
Битрейт                                  : 256 Кбит/сек
Каналы                                   : 2 канала
Расположение каналов                     : Front: L R
Частота                                  : 48,0 КГц
Битовая глубина                          : 16 бит
Метод сжатия                             : С потерями
Размер потока                            : 44,5 Мбайт (11%)
Выравнивание                             : Разделение по промежуткам
Продолжительность промежутка             : 42  мс. (1,00 видеокадр)
Время предзагрузки промежутка            : 500  мс.
Заголовок                                : Russian [Vulpes Vulpes]

Аудио #2
Идентификатор                            : 2
Формат                                   : AC-3
Формат/Информация                        : Audio Coding 3
Расширение режима                        : CM (complete main)
Параметр Endianness формата              : Big
Идентификатор кодека                     : 2000
Продолжительность                        : 24 м.
Вид битрейта                             : Постоянный
Битрейт                                  : 256 Кбит/сек
Каналы                                   : 2 канала
Расположение каналов                     : Front: L R
Частота                                  : 48,0 КГц
Битовая глубина                          : 16 бит
Метод сжатия                             : С потерями
Размер потока                            : 44,5 Мбайт (11%)
Выравнивание                             : Разделение по промежуткам
Продолжительность промежутка             : 42  мс. (1,00 видеокадр)
Время предзагрузки промежутка            : 500  мс.
Заголовок                                : Russian [JeFerSon]

Аудио #3
Идентификатор                            : 3
Формат                                   : AC-3
Формат/Информация                        : Audio Coding 3
Расширение режима                        : CM (complete main)
Параметр Endianness формата              : Big
Идентификатор кодека                     : 2000
Продолжительность                        : 24 м.
Вид битрейта                             : Постоянный
Битрейт                                  : 256 Кбит/сек
Каналы                                   : 2 канала
Расположение каналов                     : Front: L R
Частота                                  : 48,0 КГц
Битовая глубина                          : 16 бит
Метод сжатия                             : С потерями
Размер потока                            : 44,5 Мбайт (11%)
Выравнивание                             : Разделение по промежуткам
Продолжительность промежутка             : 42  мс. (1,00 видеокадр)
Время предзагрузки промежутка            : 500  мс.
Заголовок                                : Japanese [Original]




Скриншоты: - показать


Дядя Шарик
Релиз от
источник
ARRU & JeFerSon & Vulpes Vulpes & RenmeiRei & REBUILD ARRU
А вы ничего не забыли?
наверх

Последние поступления