ARRU





Dantalian no Shoka TV (2011)
Таинственная библиотека Данталиан [01-12 of 12] [BD-Rip 720p] (GSG)   Bookmark


Скачать вход / регистрация
Тема на форуме Обсудить аниме (комментариев: 76)
Обсуждение раздачи (комментариев: 26)
ОписаниеDantalian no Shoka TV (2011) / Таинственная библиотека Данталиан [01-12 of 12] [BD-Rip 720p] (GSG)
Оригинальное название: Dantalian no Shoka
Английское название: The Mystic Archives of Dantalian
Русское название: Таинственная библиотека Данталиан

Страна: Япония
Жанр: приключения, мистика, фэнтези, Action
Год выхода: 2011
Колличество серий: 12
Продолжительность: 25 мин
Студия: GAINAX
Режиссёр: Уэмура Ютака
Автор оригинала: Микумо Гакуто

Описание:
История рассказывает нам историю о молодом человеке по имени Хью, который унаследовал затхлую старую недвижимость, а также коллекцию книг от своего деда. Когда Хью идет осматривать свои владенья, он встречает странную девушку Далиан, девушка была в черном платье и спокойно читала в подвале. Как оказалось, Далиан управляет Вратами в Мистическую библиотеку Данаталиана, где хранятся запрещенные книги мудрости Демонов.
GainaX экранизируют серию книг под названием Dantalian no Shoka.

Olfor world-art.ru

Названия эпизодов - показать

01. Pop-up Book
02. Book of Fetus
03. Book of Wisdom / Queen of the Night
04. Book of Soul Exchange
05. The Magicians Daughter
06. The Book Burner
07. Parfumer
08. Book of Equivalence / Book of Connection
09. Book of Twilight
10. Phantom Score
11. Bibliotheca Razielis Archangeli
12. Song of the Unknown Tomorrow


Источник рипа: BD-Rip
Автор рипа\энкод: RACER RS
BD RE-тайминг звука: RACER RS
Тип видео: Без хардсаба
Контейнер: MKV
Видео:  AVC1 High@L5.1 | 1280 x 720 (16:9) | 23,976 fps | 2700kbps ;

Аудио:
RUS: AC3 | 48000Hz | 256 Kbps | 2ch
JAP: AC3 | 48000Hz | 256 Kbps | 2ch
Субтитры: Ru - soft [ASS]

Озвучивание: Persona99
Перевод: Nati
Редактор: Reaper
RE-Тайминг субтитров: RACER RS

MediaInfo: - показать

General
Unique ID                                : 202692999745490528011633673367475219253 (0x987D40742DD5899DB7A4FB4271486B35)
Complete name                            : I:\ARRU Rebuild HD\Dantalian no Shoka (BD-Rip 720p AVC1 AC3x2) [Animereactor]\Dantalian no Shoka - [01 of 12] (BD 1280x720 AVC1 AC3x2) [Persona99 & AnimeReactor].mkv
Format                                   : Matroska
Format version                           : Version 2
File size                                : 561 MiB
Duration                                 : 24mn 22s
Overall bit rate                         : 3 216 Kbps
Encoded date                             : UTC 2012-08-22 13:21:24
Writing application                      : mkvmerge v5.3.0 ('I could have danced' built on Feb  9 2012 10:38:07
Writing library                          : libebml v1.2.3 + libmatroska v1.3.0

Video
ID                                       : 1
Format                                   : AVC
Format/Info                              : Advanced Video Codec
Format profile                           : High@L5.1
Format settings, CABAC                   : No
Format settings, ReFrames                : 2 frames
Muxing mode                              : Header stripping
Codec ID                                 : V_MPEG4/ISO/AVC
Duration                                 : 24mn 22s
Bit rate                                 : 2 700 Kbps
Width                                    : 1 280 pixels
Height                                   : 720 pixels
Display aspect ratio                     : 16:9
Frame rate mode                          : Variable
Frame rate                               : 23.976 fps
Color space                              : YUV
Chroma subsampling                       : 4:2:0
Bit depth                                : 8 bits
Scan type                                : Progressive
Bits/(Pixel*Frame)                       : 0.122
Stream size                              : 460 MiB (82%)
Writing library                          : x264 core 120 r2146M bcd41db
Encoding settings                        : cabac=0 / ref=1 / deblock=1:0:0 / analyse=0x3:0x133 / me=hex / subme=10 / psy=1 / psy_rd=1.00:0.20 / mixed_ref=0 / me_range=16 / chroma_me=1 / trellis=2 / 8x8dct=1 / cqm=0 / deadzone=21,11 / fast_pskip=1 / chroma_qp_offset=-3 / threads=8 / sliced_threads=0 / nr=0 / decimate=1 / interlaced=0 / bluray_compat=0 / constrained_intra=0 / bframes=1 / b_pyramid=0 / b_adapt=2 / b_bias=0 / direct=3 / weightb=1 / open_gop=0 / weightp=2 / keyint=230 / keyint_min=23 / scenecut=40 / intra_refresh=0 / rc_lookahead=0 / rc=2pass / mbtree=1 / bitrate=2700 / ratetol=1.0 / qcomp=0.60 / qpmin=10 / qpmax=51 / qpstep=4 / cplxblur=20.0 / qblur=0.5 / ip_ratio=1.40 / aq=1:1.00
Default                                  : Yes
Forced                                   : No

Audio #1
ID                                       : 2
Format                                   : AC-3
Format/Info                              : Audio Coding 3
Mode extension                           : CM (complete main)
Format settings, Endianness              : Big
Muxing mode                              : Header stripping
Codec ID                                 : A_AC3
Duration                                 : 24mn 22s
Bit rate mode                            : Constant
Bit rate                                 : 256 Kbps
Channel(s)                               : 2 channels
Channel positions                        : Front: L R
Sampling rate                            : 48.0 KHz
Bit depth                                : 16 bits
Compression mode                         : Lossy
Stream size                              : 44.6 MiB (8%)
Title                                    : Persona99
Language                                 : Russian
Default                                  : Yes
Forced                                   : No

Audio #2
ID                                       : 3
Format                                   : AC-3
Format/Info                              : Audio Coding 3
Mode extension                           : CM (complete main)
Format settings, Endianness              : Big
Muxing mode                              : Header stripping
Codec ID                                 : A_AC3
Duration                                 : 24mn 22s
Bit rate mode                            : Constant
Bit rate                                 : 256 Kbps
Channel(s)                               : 2 channels
Channel positions                        : Front: L R
Sampling rate                            : 48.0 KHz
Bit depth                                : 16 bits
Compression mode                         : Lossy
Stream size                              : 44.6 MiB (8%)
Title                                    : Original
Language                                 : Japanese
Default                                  : No
Forced                                   : No

Text
ID                                       : 4
Format                                   : ASS
Codec ID                                 : S_TEXT/ASS
Codec ID/Info                            : Advanced Sub Station Alpha
Compression mode                         : Lossless
Language                                 : Russian
Default                                  : No
Forced                                   : No


Скриншоты: - показать





Дядя Шарик
Релиз от
источник
ARRU & Get Smart & REBUILD ARRU   &   RACER_RS
А вы ничего не забыли?
наверх

Последние поступления