ARRU





Tsutsu Yume Gunnm
Сны оружия ГУННМ (OVA)(1993)[01-02 из 02][DVDRip][HWP]   Bookmark


Скачать вход / регистрация
Тема на форуме Обсудить аниме (комментариев: 6)
Обсуждение раздачи (комментариев: 6)
ОписаниеTsutsu Yume Gunnm / Сны оружия ГУННМ (OVA)(1993)[01-02 из 02][DVDRip][HWP]
Оригинальное название: HYPER FUTURE VISON 銃夢[GUNNM] / Tsutsu Yume Gunnm
Английское название: Battle Angel Alita / Hyper Future Vision: Gunnm / Gun Dreams
Русское название: Боевой Ангел Алита / Сны оружия / ГУННМ
Страна: Япония
Трансляция: c 21.06.1993 по 21.08.1993
Жанр: драма, киберпанк, приключения, фантастика
Категория: OAV
Количество эпизодов: 2
Продолжительность: 29 мин.
Режиссёр: Фукутоми Хироси
Снято по манге: Tsutsu Yume GUNNM
Автор оригинала: Кисиро Юкито
Студия:


Описание:
После серии глобальных природных катастроф и, очевидно, нескольких вооруженных столкновений, Земля лежит в руинах. И только один прекрасный небесный город, рай, плавающий среди облаков, Тифарес остается прибежищем цивилизации. Но это - место для избранных. Внизу, под этим городом, на поверхности Земли, оставшаяся часть населения планеты ведет жестокую борьбу за существование.
На свалке отходов, падающих с Тифареса, ученый по имени Идо, находит голову девушки-киборга и восстанавливает ее. Но оказывается, что Алита /по манге - Алита, по аниме - Галли/ (так он назвал киборга, потому что свое настоящее имя она не помнит), потеряла память. Ее прошлое остается загадкой. Единственное, что она помнит, это легендарный стиль боевых искусств, разработанный специально для киборгов, но теперь забытый. Эти навыки не раз выручают ее во время странствий по этому жестокому миру. Путь ее будет не легким. Она сменит не одну работу, начиная с охотника за головами и заканчивая секретным агентом Тифареса. Переживет немало трагедий и потерь. Но сможет ли Алита достичь своей загадочной цели, какова бы она ни была?

Названия эпизодов:
01. Rusty Angel
02. Tears Sign


Источник рипа: DVD-5
Автор рипа\энкод: Renmei Rei
Тип видео: Без хардсаба
Контейнер: AVI
Видео: XviD (Build 65) | 720 x 540 пикселей | 23,976 кадра/сек | ~1800 Кбит/сек ;

Аудио:
RUS: AC-3 | 48.0 КГц | стерео | 196 Кбит/сек • одноголосый закадровый;
ENG: AC-3 | 48.0 КГц | стерео | 196 Кбит/сек • профессиональное дублирование;
JAP:  AC-3 | 48.0 КГц | стерео | 196 Кбит/сек • оригинал

Субтитры:
• русские | отдельно [SRT][Dracat]
• русские | отдельно [SRT][Nomad]
• английские | отдельно [SRT]

MediaInfo: - показать
Общее
Полное имя                               : R:\Video\HWP\[AnimeReactor.RU] Tsutsu Yume Gunnm (OVA)[01-02 of 2][DVDRip][HWP]\Tsutsu Yume Gunnm [01 of 02][DVDrip][720x540 XviD AC3x3][AnimeReactor.RU].avi
Формат                                   : AVI
Формат/Информация                        : Audio Video Interleave
Размер файла                             : 497 Мбайт
Продолжительность                        : 29 м.
Общий поток                              : 2395 Кбит/сек
Программа кодирования                    : VirtualDubModRus 1.5.10.2 (build 2542/release)
Библиотека кодирования                   : VirtualDubMod build 2542/release

Видео
Идентификатор                            : 0
Формат                                   : MPEG-4 Visual
Профиль формата                          : Advanced Simple@L5
Параметр BVOP формата                    : 2
Параметр QPel формата                    : Нет
Параметр GMC формата                     : Без точки перехода
Параметр матрицы формата                 : Default (H.263)
Идентификатор кодека                     : XVID
Идентификатор кодека/Подсказка           : XviD
Продолжительность                        : 29 м.
Битрейт                                  : 1800 Кбит/сек
Ширина                                   : 720 пикселей
Высота                                   : 540 пикселей
Соотношение сторон                       : 4:3
Частота кадров                           : 23,976 кадра/сек
Цветовое пространство                    : YUV
Субдискретизация насыщенности            : 4:2:0
Битовая глубина                          : 8 бит
Тип развёртки                            : Прогрессивная
Метод сжатия                             : С потерями
Бит/(Пиксели*Кадры)                      : 0.193
Размер потока                            : 373 Мбайт (75%)
Библиотека кодирования                   : XviD 65

Аудио #1
Идентификатор                            : 1
Формат                                   : AC-3
Формат/Информация                        : Audio Coding 3
Расширение режима                        : CM (complete main)
Параметр Endianness формата              : Big
Идентификатор кодека                     : 2000
Продолжительность                        : 28 м.
Вид битрейта                             : Постоянный
Битрейт                                  : 192 Кбит/сек
Каналы                                   : 2 канала
Расположение каналов                     : Front: L R
Частота                                  : 48,0 КГц
Битовая глубина                          : 16 бит
Метод сжатия                             : С потерями
Размер потока                            : 39,8 Мбайт (8%)
Выравнивание                             : Разделение по промежуткам
Продолжительность промежутка             : 42  мс. (1,00 видеокадр)
Время предзагрузки промежутка            : 500  мс.
Заголовок                                : Russian

Аудио #2
Идентификатор                            : 2
Формат                                   : AC-3
Формат/Информация                        : Audio Coding 3
Расширение режима                        : CM (complete main)
Параметр Endianness формата              : Big
Идентификатор кодека                     : 2000
Продолжительность                        : 28 м.
Вид битрейта                             : Постоянный
Битрейт                                  : 192 Кбит/сек
Каналы                                   : 2 канала
Расположение каналов                     : Front: L R
Частота                                  : 48,0 КГц
Битовая глубина                          : 16 бит
Метод сжатия                             : С потерями
Размер потока                            : 39,8 Мбайт (8%)
Выравнивание                             : Разделение по промежуткам
Продолжительность промежутка             : 42  мс. (1,00 видеокадр)
Время предзагрузки промежутка            : 500  мс.
Заголовок                                : English

Аудио #3
Идентификатор                            : 3
Формат                                   : AC-3
Формат/Информация                        : Audio Coding 3
Расширение режима                        : CM (complete main)
Параметр Endianness формата              : Big
Идентификатор кодека                     : 2000
Продолжительность                        : 28 м.
Вид битрейта                             : Постоянный
Битрейт                                  : 192 Кбит/сек
Каналы                                   : 2 канала
Расположение каналов                     : Front: L R
Частота                                  : 48,0 КГц
Битовая глубина                          : 16 бит
Метод сжатия                             : С потерями
Размер потока                            : 39,8 Мбайт (8%)
Выравнивание                             : Разделение по промежуткам
Продолжительность промежутка             : 42  мс. (1,00 видеокадр)
Время предзагрузки промежутка            : 500  мс.
Заголовок                                : Japanese [Original]


Скриншоты: - показать


Дядя Шарик
Релиз от
источник
ARRU & RenmeiRei & REBUILD ARRU
А вы ничего не забыли?
наверх

Последние поступления