ARRU





Zegapain
Дзегапейн [01-26 из 26][BDRip][HWP]   Bookmark


Скачать вход / регистрация
Тема на форуме Обсудить аниме (комментариев: 19)
Обсуждение раздачи (комментариев: 60)
Смотреть онлайн
ОписаниеZegapain / Дзегапейн [01-26 из 26][BDRip][HWP]
Оригинальное название: ゼーガペイン-
Английское название: Zegapain
Русское название: Дзегапейн

Страна: Япония
Жанр: фантастика, меха, романтика
Год выхода: 2006
Колличество серий: 26
Продолжительность: 25 мин
Студия: SUNRISE
Режиссёр: Имода Масами

Описание:
Кё Согору, ученик средней школы Майхами Маинами. Обычный школьник, живущий обычной школьной жизнью, то есть - любит, дружит и учиться. С самого детства занимаеться плаваньем и жить без него не может. Но его обычная жизнь изменится, когда он встретит прекрасную девушку по имени Шизуно, которая попросит его спасти мир...
Одним словом - очень красочная и захватывающая меха

Названия эпизодов - показать

01. Entangle
02. Cerebrum
03. Deftera Territory
04. Shanghai Server
05. Deja Vu
06. Apparition
07. Wandering Soul
08. On The Other Side Of The Water
09. Wet Damage
10. Again, Summer Comes
11. Remaining Illusions
12. Those That Awaken
13. New Wizard
14. Destroyed Memories
15. Reincarnation
16. Revived Battlefield
17. The Restored
18. The Fabricated Wounds, The Pain Withers
19. Last Supper
20. Yel, Shizuno
21. The Soldiers...
22. G-Phaetus
23. When the Moon Does not Sink
24. One Drop of Light
25. Is the Sky of Maihama Blue?
26. All Creation


Источник рипа: BD-Rip
Автор рипа\энкод: RACER RS
Тип видео: Без хардсаба
Контейнер: AVI
Видео: XviD 64 | 720 x 404 (16:9) | 23,976 fps | 1450 kbps ;

Аудио:
RUS: AC3 | 48000Hz | 192 Kbps | 2ch
JAP: AC3 | 48000Hz | 256 Kbps | 2ch
Субтитры: Ru - soft [ASS]и[SRT]

Озвучивание:  (1-17) NothinG; (18-26) Hunter26
Перевод:  (1-13) NothinG ; (14 -15) Vigo87 ;(16-17) Vigo87 и Artch the Phantom; (18-26) Inhesion

MediaInfo: - показать

General
Complete name                            : I:\ARRU Rebuild\Zegapain (TV) [26 of 26] [BD-Rip] [HWP] [AnimeReactor.ru]\Zegapain_TV_[01_of_26] (XviD 720 x 404 AC3x2) [Animereactor].avi
Format                                   : AVI
Format/Info                              : Audio Video Interleave
File size                                : 320 MiB
Duration                                 : 23mn 22s
Overall bit rate                         : 1 912 Kbps
Writing application                      : VirtualDubMod 1.5.10.2 (build 2540/release)
Writing library                          : VirtualDubMod build 2540/release

Video
ID                                       : 0
Format                                   : MPEG-4 Visual
Format profile                           : Advanced Simple@L5
Format settings, BVOP                    : 2
Format settings, QPel                    : No
Format settings, GMC                     : No warppoints
Format settings, Matrix                  : Default (H.263)
Codec ID                                 : XVID
Codec ID/Hint                            : XviD
Duration                                 : 23mn 22s
Bit rate                                 : 1 450 Kbps
Width                                    : 720 pixels
Height                                   : 404 pixels
Display aspect ratio                     : 16:9
Frame rate                               : 23.976 fps
Color space                              : YUV
Chroma subsampling                       : 4:2:0
Bit depth                                : 8 bits
Scan type                                : Progressive
Compression mode                         : Lossy
Bits/(Pixel*Frame)                       : 0.208
Stream size                              : 242 MiB (76%)
Writing library                          : XviD 64

Audio #1
ID                                       : 1
Format                                   : AC-3
Format/Info                              : Audio Coding 3
Mode extension                           : CM (complete main)
Format settings, Endianness              : Big
Codec ID                                 : 2000
Duration                                 : 23mn 22s
Bit rate mode                            : Constant
Bit rate                                 : 192 Kbps
Channel(s)                               : 2 channels
Channel positions                        : Front: L R
Sampling rate                            : 48.0 KHz
Bit depth                                : 16 bits
Compression mode                         : Lossy
Stream size                              : 32.1 MiB (10%)
Alignment                                : Split accross interleaves
Interleave, duration                     : 42 ms (1.00 video frame)
Interleave, preload duration             : 500 ms
Title                                    : Nothing [Russian]

Audio #2
ID                                       : 2
Format                                   : AC-3
Format/Info                              : Audio Coding 3
Mode extension                           : CM (complete main)
Format settings, Endianness              : Big
Codec ID                                 : 2000
Duration                                 : 23mn 22s
Bit rate mode                            : Constant
Bit rate                                 : 256 Kbps
Channel(s)                               : 2 channels
Channel positions                        : Front: L R
Sampling rate                            : 48.0 KHz
Bit depth                                : 16 bits
Compression mode                         : Lossy
Stream size                              : 42.8 MiB (13%)
Alignment                                : Split accross interleaves
Interleave, duration                     : 42 ms (1.00 video frame)
Interleave, preload duration             : 500 ms
Title                                    : Original [Japanese]

Скриншоты: - показать




Дядя Шарик
Релиз от
источник
ARRU & REBUILD ARRU   &   RACER_RS
А вы ничего не забыли?
наверх

Последние поступления