ARRU





Mahou Shoujo Madoka Magica
Девочка-волшебница Мадока (TV)(2011)[01-12 из 12][BD-Rip][1080p]   Bookmark


Скачать вход / регистрация
Тема на форуме Обсудить аниме (комментариев: 324)
Обсуждение раздачи (комментариев: 39)
ОписаниеMahou Shoujo Madoka Magica / Девочка-волшебница Мадока (TV)(2011)[01-12 из 12][BD-Rip][1080p]
Оригинальное название: 魔法少女まどか★マギカ
Английское название: Puella Magi Madoka Magica / Maho Shojo Madoka Magica
Русское название: Девочка-волшебница Мадока

Страна: Япония
Период трансляции: c 07.01.2011 по 22.04.2011
Жанр:  махо-сёдзё, ужасы, драма

Категория: TV
Количество эпизодов: 12 эп.
Продолжительность: ~25 мин.
Студия: SHAFT
Режиссёр: Симбо Акиюки
Сценарий: Уробути Гэн

Описание:
14-летняя Мадока Канамэ спокойно жила в современной японской семье с мамой - деловой женщиной, папой-домохозяином и маленьким братиком. Все изменил один неясный сон, где темноволосая девочка, по виду ее ровесница, сражалась с силами зла в каком-то фантасмагорическом мире. Излишне говорить, что утром Мадока увидела ее в школе, и новая знакомая по имени Хомура Акэми прямым текстом заявила - не стоит посторонним лезть не в свое дело. Но как простая, но честная и справедливая японская школьница может остаться в стороне, когда на глазах убивают милого зверька, а привычный мир, похоже, сходит с ума?

Знаменитый режиссер Акиюки Симбо долго хотел поставить сериал о девушках-волшебницах, где его фантазию не стесняли бы бюджет или жесткий сценарий, где он бы смог воплотить все находки, сделанные на долгом и успешном творческом пути. И вот теперь мы сможем насладиться зрелищем, где сюжетные ходы «Нанохи» и «Нэгимы» встречаются с обаянием «Хидамари», а действие развивается на фоне визуального великолепия «Историй чудовищ» и «Печального сэнсея». Станет ли рассказ о Мадоке новой вехой в развитии жанра – мы скоро узнаем!
© Hollow, World Art

Названия эпизодов:
01. Кажется, я видела её во сне
02. Это было здорово
03. Я больше не боюсь
04. Чудеса и магия существуют
05. Мне не о чем жалеть
06. Это очень странно
07. Разберёшься ли ты в своих чувствах?
08. Какая же я глупая
09. Я этого не допущу
10. Я не буду ни на кого полагаться
11. Единственный оставшийся путь
12. Моя лучшая подруга


Качество рипа: BDRip
Автор рипа: Yousei-raws
Тип видео: Без хардсаба
Контейнер: mkv
Видео: AVC (х264)| 1920x1080 | 23.976 fps | ~9000Kbps


Аудио:
RUS1: MP3 | 48000Hz | 320 Kbps | 2ch - Kai & Emeri
RUS2: AC3 | 48000Hz | 192 Kbps | 2ch -  VashMax2
JAP: FLAC | 48000Hz | ~1400 Kbps | 2ch

Субтитры: Dreamers Team

MediaInfo: - показать

Общее
Формат                           : Matroska
Версия формата                   : Version 2
Размер файла                     : 2,03 Гбайт
Продолжительность                : 25 м.
Режим общего битрейта            : Переменный
Общий поток                      : 11,3 Мбит/сек
Название фильма                  : Magical Girl Madoka Magica 12
Дата кодирования                 : UTC 2012-08-17 11:12:14
Программа кодирования            : mkvmerge v3.4.0  сборка от May 15 2010 09:38:20
Библиотека кодирования           : libebml v0.8.0 + libmatroska v0.9.0

Видео
Идентификатор                    : 1
Формат                           : AVC
Формат/Информация                : Advanced Video Codec
Профиль формата                  : High@L4.1
Параметр CABAC формата           : Да
Параметр ReFrames формата        : 4 кадра
Идентификатор кодека             : V_MPEG4/ISO/AVC
Продолжительность                : 25 м.
Номинальный битрейт              : 9235 Кбит/сек
Ширина                           : 1920 пикселей
Высота                           : 1080 пикселей
Соотношение сторон               : 16:9
Частота кадров                   : 23,976 кадра/сек
Цветовое пространство            : YUV
Субдискретизация насыщенности    : 4:2:0
Битовая глубина                  : 8 бит
Тип развёртки                    : Прогрессивная
Бит/(Пиксели*Кадры)              : 0.186
Заголовок                        : Yousei-raws
Библиотека кодирования           : x264 core 114 r1924 08d04a4
Язык                             : Japanese
Default                          : Нет
Forced                           : Нет

Аудио #1
Идентификатор                    : 2
Формат                           : MPEG Audio
Версия формата                   : Version 1
Профиль формата                  : Layer 3
Режим                            : Joint stereo
Расширение режима                : MS Stereo
Идентификатор кодека             : A_MPEG/L3
Идентификатор кодека/Подсказка   : MP3
Продолжительность                : 25 м.
Вид битрейта                     : Постоянный
Битрейт                          : 320 Кбит/сек
Каналы                           : 2 канала
Частота                          : 48,0 КГц
Метод сжатия                     : С потерями
Размер потока                    : 58,8 Мбайт (3%)
Заголовок                        : Kai & Emeri
Библиотека кодирования           : LAME3.98r
Настройки программы              : -m j -V 4 -q 0 -lowpass 20.5
Язык                             : Russian
Default                          : Нет
Forced                           : Нет

Аудио #2
Идентификатор                    : 3
Формат                           : AC-3
Формат/Информация                : Audio Coding 3
Расширение режима                : CM (complete main)
Идентификатор кодека             : A_AC3
Продолжительность                : 25 м.
Вид битрейта                     : Постоянный
Битрейт                          : 192 Кбит/сек
Каналы                           : 2 канала
Расположение каналов             : Front: L R
Частота                          : 48,0 КГц
Битовая глубина                  : 16 бит
Метод сжатия                     : С потерями
Размер потока                    : 35,3 Мбайт (2%)
Заголовок                        : VashMax2
Язык                             : Russian
Default                          : Нет
Forced                           : Нет

Аудио #3
Идентификатор                    : 4
Формат                           : FLAC
Формат/Информация                : Free Lossless Audio Codec
Идентификатор кодека             : A_FLAC
Продолжительность                : 25 м.
Вид битрейта                     : Переменный
Каналы                           : 2 канала
Частота                          : 48,0 КГц
Битовая глубина                  : 24 бит
Заголовок                        : Original
Библиотека кодирования           : libFLAC 1.2.1 (UTC 2007-09-17)
Язык                             : Japanese
Default                          : Нет
Forced                           : Нет

Текст
Идентификатор                    : 5
Формат                           : ASS
Идентификатор кодека             : S_TEXT/ASS
Идентификатор кодека/Информация  : Advanced Sub Station Alpha
Метод сжатия                     : Без потерь
Заголовок                        : Dreamers Team
Язык                             : Russian
Default                          : Нет
Forced                           : Нет


Скриншоты: - показать




От себя:
Данный релиз был предоставлен товарищем Devil-JIN, за что ему огромное спасибо.
Дядя Шарик
Релиз от
источник
ARRU & TF-AniGroup & VashMax2 & REBUILD ARRU
А вы ничего не забыли?
наверх

Последние поступления