ARRU





Durarara!!
Дрррр!! (TV)(2010)[01-24 из 24][BD-Rip][720p]   Bookmark


Скачать вход / регистрация
Тема на форуме Обсудить аниме (комментариев: 1603)
Обсуждение раздачи (комментариев: 14)
Смотреть онлайн
ОписаниеDurarara!! / Дрррр!! (TV)(2010)[01-24 из 24][BD-Rip][720p]
Оригинальное название: Durarara!!
Английское название: Durarara
Русское название: Дрррр

Страна: Япония
Период трансляции: c 08.01.2010 по 25.06.2010
Количество эпизодов ТВ: 24
Продолжительность: 25 мин
Жанр: приключения, мистика, повседневность

Студия:
Режиссёр: Омори Такахиро
Автор оригинала: Нарита Рёго


Описание:
Микадо Рюгаминэ, несмотря на громкое имя (оно значит «император Горы Дракона») – тихий и скромный парень. До поры до времени он безвылазно жил в столичном предместье, а диким тусовкам и ночным прогулкам предпочитал общение по Интернету. Но герою внезапно захотелось нового – и вот, по совету друга детства, он переводится в старшую школу Райра, что находится в Икэбукуро – одном из самых веселых и опасных районов Токио. Прибыв туда, Микадо словно окунается в иной мир, а старый друг Масаоми, подобно Вергилию, постепенно ведет гостя все глубже по ярусам новой обители…

Очень скоро новосел Икэбукуро узнаёт, что хочешь жить – умей вертеться, уличные банды уже не шалят по-прежнему, русский негр Саймон – мировой парень, а вот местному хулигану Сидзуо лучше под руку не попадаться. И когда Микадо видит городскую легенду – Всадника-без-Головы, то окончательно понимает, что приехал не зря. Отныне главный герой становится частью большого города, а мы сможем наблюдать за его жизнью и увлекательными приключениями среди школьных друзей, уличных и сетевых бандитов, дилеров черного рынка, сталкеров, маньяков и сверхъестественных существ!

© Hollow, World Art


Названия эпизодов:
01. First Words
02. Highly Unpredictable
03. Rampant
04. Loneliness
05. Selling Dog Meat as Lamb
06. Bustle
07. Fleeting Shifts and Changes
08. Transient Dream
09. Yearning and Loving
10. The First and Probably the Last
11. Storm and Stress
12. Being and Non-Being Mutually Exist
13. A Sudden Turn
14. Public Unrest
15. A Fool May Give Good Counsel
16. Mutual Love
17. Perpetual Shifts and Changes
18. Life and Death are Up to Fate
19. The Blue Sky Perishes
20. The Yellow Sky Rises
21. At a Total Loss
22. Break-up Announcement
23. All Mixed Up
24. Selfless Devotion



Качество рипа: BDRip
Автор рипа: Yousei-raws
Тип видео: Без хардсаба
Контейнер: mkv
Видео: AVC (х264)| 10 бит | 1280x720 | 23.976 fps | ~2500Kbps

Аудио:
RUS1: AAC | 48000Hz | 128 Kbps | 2ch - Shachiburi
RUS2: MP3 | 48000Hz | 160 Kbps | 2ch -  Persona99
JAP: Vorbis | 48000Hz | ~256 Kbps | 2ch

Субтитры: Dreamers Team (полные/вспомогательные)

MediaInfo: - показать

Общее
Формат                           : Matroska
Версия формата                   : Version 2
Размер файла                     : 582 Мбайт
Продолжительность                : 24 м.
Режим общего битрейта            : Переменный
Общий поток                      : 3317 Кбит/сек
Дата кодирования                 : UTC 2012-08-14 04:41:31
Программа кодирования            : mkvmerge v3.4.0 сборка от May 15 2010 09:38:20
Библиотека кодирования           : libebml v0.8.0 + libmatroska v0.9.0

Видео
Идентификатор                    : 1
Формат                           : AVC
Формат/Информация                : Advanced Video Codec
Профиль формата                  : High 10@L4.1
Параметр CABAC формата           : Да
Параметр ReFrames формата        : 9 кадров
Идентификатор кодека             : V_MPEG4/ISO/AVC
Продолжительность                : 24 м.
Ширина                           : 1280 пикселей
Высота                           : 720 пикселей
Соотношение сторон               : 16:9
Частота кадров                   : 23,976 кадра/сек
Цветовое пространство            : YUV
Субдискретизация насыщенности    : 4:2:0
Битовая глубина                  : 10 бит
Тип развёртки                    : Прогрессивная
Заголовок                        : Yousei-raws
Библиотека кодирования           : x264 core 120 r2164 da19765
Язык                             : Japanese
Default                          : Да
Forced                           : Нет

Аудио #1
Идентификатор                    : 2
Формат                           : AAC
Формат/Информация                : Advanced Audio Codec
Профиль формата                  : LC
Идентификатор кодека             : A_AAC
Продолжительность                : 24 м.
Каналы                           : 2 канала
Расположение каналов             : Front: L R
Частота                          : 48,0 КГц
Метод сжатия                     : С потерями
Заголовок                        : Shachiburi
Язык                             : Russian
Default                          : Да
Forced                           : Нет

Аудио #2
Идентификатор                    : 3
Формат                           : MPEG Audio
Версия формата                   : Version 1
Профиль формата                  : Layer 3
Идентификатор кодека             : A_MPEG/L3
Идентификатор кодека/Подсказка   : MP3
Продолжительность                : 24 м.
Вид битрейта                     : Постоянный
Битрейт                          : 160 Кбит/сек
Каналы                           : 2 канала
Частота                          : 48,0 КГц
Метод сжатия                     : С потерями
Размер потока                    : 28,1 Мбайт (5%)
Заголовок                        : Persona99
Язык                             : Russian
Default                          : Нет
Forced                           : Нет

Аудио #3
Идентификатор                    : 4
Формат                           : Vorbis
Параметр Floor формата           : 1
Идентификатор кодека             : A_VORBIS
Продолжительность                : 24 м.
Вид битрейта                     : Переменный
Битрейт                          : 256 Кбит/сек
Каналы                           : 2 канала
Частота                          : 48,0 КГц
Метод сжатия                     : С потерями
Размер потока                    : 44,9 Мбайт (8%)
Заголовок                        : Original
Библиотека кодирования           : libVorbis (Schaufenugget) (20101101 (Schaufenugget))
Язык                             : Japanese
Default                          : Нет
Forced                           : Нет

Текст #1
Идентификатор                    : 5
Формат                           : ASS
Идентификатор кодека             : S_TEXT/ASS
Идентификатор кодека/Информация  : Advanced Sub Station Alpha
Метод сжатия                     : Без потерь
Заголовок                        : Dreamers Team (notes)
Язык                             : Russian
Default                          : Да
Forced                           : Нет

Текст #2
Идентификатор                    : 6
Формат                           : ASS
Идентификатор кодека             : S_TEXT/ASS
Идентификатор кодека/Информация  : Advanced Sub Station Alpha
Метод сжатия                     : Без потерь
Заголовок                        : Dreamers Team
Язык                             : Russian
Default                          : Нет
Forced                           : Нет


Скриншоты: - показать




От себя:
Данный релиз был предоставлен товарищем Aglenn, за что ему огромное спасибо.
Дядя Шарик
Релиз от
источник
ARRU & Get Smart & Shachiburi & REBUILD ARRU
А вы ничего не забыли?
наверх

Последние поступления