ARRU





Coquelicot Saka kara
С маковых склонов (фильм)(2011)[BDrip][HWP]   Bookmark


Скачать вход / регистрация
Тема на форуме Обсудить фильм (комментариев: 5)
Обсуждение раздачи (комментариев: 13)
ОписаниеCoquelicot Saka kara / С маковых склонов (фильм)(2011)[BDrip][HWP]
Английское название: Coquelicot Saka kara
Русское название: С маковых склонов
Страна: Япония
Год выпуска: 2011
Жанр: романтика, школа, сёдзё
Продолжительность: 95 мин.
Режиссёр:  Миядзаки Горо
Автор оригинала:  Миядзаки Хаяо
Студия:


Описание:
Жила-была старшеклассница Юми. Отец её, будучи капитаном судна, подорвался на мине во время войны с Кореей. Мама в отъезде. Вот и приходится Юми самой возиться хозяйству, при этом, не забывая каждое утро поднимать флажки - такое правило завёл отец, чтобы видеть с моря, что его ждут дома.
В городке имеется школьный клуб, с различными секциями по интересам. Этот клуб хотят снести, т.к. здание старое. И вот Юми, вместе с другими школьными активистами приходится ехать в Токио к высшему руководству, дабы спасти дом от разрушения.
И всё бы ничего, если бы эта история не была переплетена коллизиями прошедших военных лет, когда людям приходилось идти на трудные и, подчас, нелегкие поступки...

Источник рипа: BD-Rip
Автор рипа\энкод: Renmei Rei
Тип видео: Без хардсаба
Контейнер: AVI
Видео: XviD (Build 65) | 720 x 404 пикселей | 23,976 кадра/сек | ~1500 Кбит/сек ;

Аудио:
RUS1: AC-3 | 48.0 КГц | стерео | 256 Кбит/сек;
RUS2: AC-3 | 48.0 КГц | 5 каналов | 448 Кбит/сек;
JAP:  AC-3 | 48.0 КГц | 5 каналов | 448 Кбит/сек

Субтитры: русские | отдельно [Advantage]
Перевод: Lighter235 l Advokat
Работа со звуком: Nikanor47
Озвучивание: Sagi l Valkrist l Scrap l Kogarasi l Kasumi


MediaInfo: - показать
Общее
Полное имя                               : R:\Video\HWP\[AnimeReactor.RU] Coquelicot Saka kara (movie)[BDRip][HWP]\Coquelicot Saka kara [BDRip][720x404 XviD AC3x3][ARRU Workshop].avi
Формат                                   : AVI
Формат/Информация                        : Audio Video Interleave
Размер файла                             : 1,69 Гбайт
Продолжительность                        : 1 ч. 30 м.
Общий поток                              : 2671 Кбит/сек
Программа кодирования                    : VirtualDubModRus 1.5.10.2 (build 2542/release)
Библиотека кодирования                   : VirtualDubMod build 2542/release

Видео
Идентификатор                            : 0
Формат                                   : MPEG-4 Visual
Профиль формата                          : Advanced Simple@L5
Параметр BVOP формата                    : 2
Параметр QPel формата                    : Нет
Параметр GMC формата                     : Без точки перехода
Параметр матрицы формата                 : Default (H.263)
Идентификатор кодека                     : XVID
Идентификатор кодека/Подсказка           : XviD
Продолжительность                        : 1 ч. 30 м.
Битрейт                                  : 1500 Кбит/сек
Ширина                                   : 720 пикселей
Высота                                   : 404 пикселя
Соотношение сторон                       : 16:9
Частота кадров                           : 23,976 кадра/сек
Цветовое пространство                    : YUV
Субдискретизация насыщенности            : 4:2:0
Битовая глубина                          : 8 бит
Тип развёртки                            : Прогрессивная
Метод сжатия                             : С потерями
Бит/(Пиксели*Кадры)                      : 0.215
Размер потока                            : 975 Мбайт (56%)
Библиотека кодирования                   : XviD 65

Аудио #1
Идентификатор                            : 1
Формат                                   : AC-3
Формат/Информация                        : Audio Coding 3
Расширение режима                        : CM (complete main)
Параметр Endianness формата              : Big
Идентификатор кодека                     : 2000
Продолжительность                        : 1 ч. 30 м.
Вид битрейта                             : Постоянный
Битрейт                                  : 256 Кбит/сек
Каналы                                   : 2 канала
Расположение каналов                     : Front: L R
Частота                                  : 48,0 КГц
Битовая глубина                          : 16 бит
Метод сжатия                             : С потерями
Размер потока                            : 166 Мбайт (10%)
Выравнивание                             : Разделение по промежуткам
Продолжительность промежутка             : 42  мс. (1,00 видеокадр)
Время предзагрузки промежутка            : 500  мс.
Заголовок                                : Russian [ARRU Workshop][2 chanels]

Аудио #2
Идентификатор                            : 2
Формат                                   : AC-3
Формат/Информация                        : Audio Coding 3
Расширение режима                        : CM (complete main)
Параметр Endianness формата              : Big
Идентификатор кодека                     : 2000
Продолжительность                        : 1 ч. 30 м.
Вид битрейта                             : Постоянный
Битрейт                                  : 448 Кбит/сек
Каналы                                   : 5 каналов
Расположение каналов                     : Front: L C R, Side: L R
Частота                                  : 48,0 КГц
Битовая глубина                          : 16 бит
Метод сжатия                             : С потерями
Размер потока                            : 291 Мбайт (17%)
Выравнивание                             : Разделение по промежуткам
Продолжительность промежутка             : 42  мс. (1,00 видеокадр)
Время предзагрузки промежутка            : 500  мс.
Заголовок                                : Russian [ARRU Workshop][5.0 chanels]

Аудио #3
Идентификатор                            : 3
Формат                                   : AC-3
Формат/Информация                        : Audio Coding 3
Расширение режима                        : CM (complete main)
Параметр Endianness формата              : Big
Идентификатор кодека                     : 2000
Продолжительность                        : 1 ч. 30 м.
Вид битрейта                             : Постоянный
Битрейт                                  : 448 Кбит/сек
Каналы                                   : 5 каналов
Расположение каналов                     : Front: L C R, Side: L R
Частота                                  : 48,0 КГц
Битовая глубина                          : 16 бит
Метод сжатия                             : С потерями
Размер потока                            : 291 Мбайт (17%)
Выравнивание                             : Разделение по промежуткам
Продолжительность промежутка             : 42  мс. (1,00 видеокадр)
Время предзагрузки промежутка            : 500  мс.
Заголовок                                : Japanese [Original]


Скриншоты: - показать


Дядя Шарик
Релиз от
источник
ARRU & Мастерская АРРУ & RenmeiRei & REBUILD ARRU
А вы ничего не забыли?
наверх

Последние поступления