ARRU





GTO - Great Teacher Onizuka
Великий учитель Онидзука (1999)[01-43 из 43][DVDRip][HWP]   Bookmark


Скачать вход / регистрация
Тема на форуме Обсудить аниме (комментариев: 105)
Обсуждение раздачи (комментариев: 32)
Смотреть онлайн
ОписаниеGTO - Great Teacher Onizuka / Великий учитель Онидзука (1999)[01-43 из 43][DVDRip][HWP]
Оригинальное название: GTO
Английское название: Great Teacher Onizuka
Русское название: Великий учитель Онидзука
Страна: Япония
Период трансляции: c 30.06.1999 по 24.09.2000
Жанр: комедия, романтика, драма, школа
Категория: TV
Количество эпизодов: 43 эпизода
Продолжительность: 27 мин.
Режиссёр: Abe Noriyuki, Ishido Hiroyuki
Сценарий: Sogo Masashi, Suga Yoshiyuki
Композитор: Homma Yusuke
Сейю: Noda Junko, Orikasa Fumiko, Mitsuishi Kotono, Midorikawa Hikaru, Ogata Megumi, Seki Tomokazu, Kawasumi Ayako, Takagi Wataru, Suzuki Katsumi, Kobayashi Megumi, Furuya Touru, Nagashima Yuichi, Okamura Akemi, Okano Kousuke
Студия: Studio Pierrot


Описание:
 Онидзука Эйкити («22 года, холост», - как он сам любит представляться) - настоящий ужас на двух колесах, член нагоняющей ужас на горожан банды мотоциклистов, решает переквалифицироваться в… школьного учителя. Ведь в любом учебном заведении полным-полно аппетитных старшеклассниц в коротеньких юбочках! Но чем глубже примеривший необычную роль хулиган окунается в перипетии общего образования, тем сильнее он пытается переиначить место работы на свой манер - одерживая одну за другой победы над царящими в школе косностью, лицемерием, показухой и безразличием.  


Названия эпизодов:
01. The Legend Begins
02. Enter Uchiyamada
03. Late Night Roof Diving
04. The Secret Life of Onizuka
05. An Eye For an eye, a Butt For a Butt
06. Conspiracies All Around
07. The Mother of All Crushes
08. Bungee Jumping Made Easy
09. Onizuka and the Art of War
10. Outside Looking in
11. To be Idolized by a Nation
12. The Formular for Treachery
13. Only the Best Will Do
14. Between the a Rock and a Hard Place
15. The Great Sacrifice
16. Beauty + Brains = A Dangerous Mix
17. Falling for the Great Onizuka
18. How to Dine and Dash
19. Private Investigations
20. Love Letters
21. Revolution Everywhere
22. The Art of Demolition
23. Superstition
24. Compromising Positions
25. Playing Doctor - GTO Style
26. Onizuka Meets His Match
27. GTO - Agent To The Stars
28. Whatever Can Go Wrong, Will Go Wrong
29. Studies in High Finance
30. Money Talks, GTO Walks
31. Destination: Okinawa
32. The Law of Probability
33. Search and Rescue
34. Good Cop / Bad Cop
35. Wedding Bell Blues
36. Self Improvement: Fuyutsuki's Transformation
37. Living Together
38. Great Treasure Onizuka
39. Alone in the Dark
40. Matters of the Heart
41. Confessions
42. Old Wounds Revisited
43. Onizuka's Final Battle


Источник рипа: DVDRip [Yurasyk]
Автор рипа\энкод: Renmei Rei
Тип видео: Без хардсаба
Контейнер: AVI
Видео: XviD (Build 65) | 720 x 540 пикселей | 23,976 кадра/сек | ~1500 Кбит/сек ;

Аудио:
RUS: AC-3 | 48.0 КГц | 6 каналов | 384 Кбит/сек;
JAP:  AC-3 | 48.0 КГц | 6 каналов | 384 Кбит/сек

Субтитры: русские\отдельно [SRT][Nickliverpool]
Озвучивание: MC Entertaiment

MediaInfo: - показать
Общее
Полное имя                               : R:\Video\HWP\[AnimeReactor.RU] Great Teacher Onizuka [1-43 of 43][DVDRip][HWP]\Great Teacher Onizuka [01 of 43][DVDRip][720x540 XviD AC3x2][AnimeReactor.RU].avi
Формат                                   : AVI
Формат/Информация                        : Audio Video Interleave
Размер файла                             : 790 Мбайт
Продолжительность                        : 48 м.
Общий поток                              : 2282 Кбит/сек
Программа кодирования                    : VirtualDubModRus 1.5.10.2 (build 2542/release)
Библиотека кодирования                   : VirtualDubMod build 2542/release

Видео
Идентификатор                            : 0
Формат                                   : MPEG-4 Visual
Профиль формата                          : Advanced Simple@L5
Параметр BVOP формата                    : 2
Параметр QPel формата                    : Нет
Параметр GMC формата                     : Без точки перехода
Параметр матрицы формата                 : Default (H.263)
Идентификатор кодека                     : XVID
Идентификатор кодека/Подсказка           : XviD
Продолжительность                        : 48 м.
Битрейт                                  : 1500 Кбит/сек
Ширина                                   : 720 пикселей
Высота                                   : 540 пикселей
Соотношение сторон                       : 4:3
Частота кадров                           : 23,976 кадра/сек
Цветовое пространство                    : YUV
Субдискретизация насыщенности            : 4:2:0
Битовая глубина                          : 8 бит
Тип развёртки                            : Прогрессивная
Метод сжатия                             : С потерями
Бит/(Пиксели*Кадры)                      : 0.161
Размер потока                            : 519 Мбайт (66%)
Библиотека кодирования                   : XviD 65

Аудио #1
Идентификатор                            : 1
Формат                                   : AC-3
Формат/Информация                        : Audio Coding 3
Расширение режима                        : CM (complete main)
Параметр Endianness формата              : Big
Идентификатор кодека                     : 2000
Продолжительность                        : 48 м.
Вид битрейта                             : Постоянный
Битрейт                                  : 384 Кбит/сек
Каналы                                   : 6 каналов
Расположение каналов                     : Front: L C R, Side: L R, LFE
Частота                                  : 48,0 КГц
Битовая глубина                          : 16 бит
Метод сжатия                             : С потерями
Размер потока                            : 133 Мбайт (17%)
Выравнивание                             : Разделение по промежуткам
Продолжительность промежутка             : 42  мс. (1,00 видеокадр)
Время предзагрузки промежутка            : 500  мс.
Заголовок                                : Russian [MC Entertaiment]

Аудио #2
Идентификатор                            : 2
Формат                                   : AC-3
Формат/Информация                        : Audio Coding 3
Расширение режима                        : CM (complete main)
Параметр Endianness формата              : Big
Идентификатор кодека                     : 2000
Продолжительность                        : 48 м.
Вид битрейта                             : Постоянный
Битрейт                                  : 384 Кбит/сек
Каналы                                   : 6 каналов
Расположение каналов                     : Front: L C R, Side: L R, LFE
Частота                                  : 48,0 КГц
Битовая глубина                          : 16 бит
Метод сжатия                             : С потерями
Размер потока                            : 133 Мбайт (17%)
Выравнивание                             : Разделение по промежуткам
Продолжительность промежутка             : 42  мс. (1,00 видеокадр)
Время предзагрузки промежутка            : 500  мс.
Заголовок                                : Japanese [Original]


Скриншоты: - показать


Дядя Шарик
Релиз от
источник
ARRU & Netlab AnimaGroup & RenmeiRei & REBUILD ARRU
А вы ничего не забыли?
наверх

Последние поступления