ARRU





Shijou Saikyou no Deshi Kenichi TV
Сильнейший в истории ученик Кэнъити ТВ [01-50 из 50][DVD-Rip][HWP]   Bookmark


Скачать вход / регистрация
Тема на форуме Обсудить аниме (комментариев: 328)
Обсуждение раздачи (комментариев: 476)
ОписаниеShijou Saikyou no Deshi Kenichi TV / Сильнейший в истории ученик Кэнъити ТВ [01-50 из 50][DVD-Rip][HWP]
Оригинальное название: Shijou Saikyou no Deshi Kenichi
Английское название: History's Strongest Disciple Kenichi
Русское название: Сильнейший в истории ученик Кэнъити

Страна: Япония
Жанр: комедия, боевые искусства, школа, сёнэн
Год выхода: c 08.10.2006 по 30.09.2007
Колличество серий: 50
Продолжительность: 25 мин
Студия: TMS
Режиссёр: Камэгаки Хадзимэ  亀垣一
Автор оригинала: Мацуэна Сюн  松江名俊
Снято по манге: Сильнейший в истории ученик Кэнъити

Описание:
Казалось бы и графика прямо скажем средненькая, чтобы не сказать простоватая; и персонаж не шибко интересный - слабак и неудачник, которого все обижают, но у которого, однако, осталась ещё какое-то чувство гордости; и завязка не шибко интересная - он хочет доказать и себе и окружающим, что никакой он не слабак и может стать сильнее, для чего идёт в школьный клуб каратэ…
По всем канонам жанра из него там должны были бы сделать настоящего мужчину, и он еще, небось, с гордостью отстаивал бы честь школы на областных соревнованиях… А вот и дудки...

© Vik Pol World-Art

Названия эпизодов - показать

01. The place where the heroes gather
02. The First Step! The Start of the Battle
03. Strength and Courage! For Protecting Justice
04. Fighting Hell! To Fight Or Not To Fight
05. A Date Must Move Forward!
06. A Day At Ryouzanpaku! The Dream On The Roof!
07. Battle! The Gang Fights Back!
08. Amazing Muscles! The Sensei's Secret
09. Apapapa! Apachai's Training
10. Run Kenichi! A Boxer's Weakness
11. The Fist of Bestrayal! Takeda's Sad Past
12. A New Enemy! Tsuji Shinnosuke!
13. Killer Fighting Techniques! Rules of a Battle!
14. Training of life and death! And we're also going to mixed bath
15. Honoka Sneaks In! Ryouzanpaku's Guest
16. Ryouzanpaku's Biggest Crisis!!
17. Protect the Sign! Attack on the Dojo!
18. Amusement To the Secret Furinji Island!
19. Ragnarok's Strongest! The Arrival of the Eight Fists!
20. Takeda in Danger! The Rules of Revenge!
21. Unforgiveable!! Kenichi's fist of fury!
22. Meet the Youth! New White Combination formation!
23. Attack! The Neighboring Ryouzanpaku!
24. The Stolen Heart! Miu's Juliet!
25. Protect to the Death Kenichi! Miu's Lips
26. The Mask Removed! Hermit's Real Identity
27. Hard vs. Soft! The Siblings Quarrel After the Long Separation
28. The Assault Commander Joins In! Restaurant Scuffle
29. What Fear, Seig! Prelude for destruction
30. The Results of Training! The Effects of Moving Forward in Small Steps!
31. Honoka, I'll save you
32. Honoka's in Crisis! Loki's Scheme!
33. Take Him Down, Kenichi! Let Your Fists do the Talking!
34. Without being defeated! The word to which the person whom it loves leaves
35. There is no nuisance! Now at the time of conclusion
36. Miu vs. Renka! The Triangle that Calls up a Storm
37. Dangerous temptation it is dense together!
38. Human bullet game of lovely kitten women!
39. Shigure's Personal Teachings
40. The Promised Land! Everything Starts from Here
41. Seikouken's Terror! The Dragon's Dance Descends!
42. Elder's Special Training Do Or Die Mountain Seclusion
43. Limiter! An Invitation to Shurado
44. Shinpaku Alliance Crumbles! The Mad Fist Draws Near
45. The Determinant Blow! Sakura, Dance!
46. Farewell!! Shinjima's Resolve
47. A Genius's Weakness! Effort can Surpass Talent!
48. Summit Showdown! The Man Who Carries The Spear of Legend
49. The Strongest Transformation! Rhythmn Ryouzanpaku!
50. History's Strongest Disciple, Kenichi


Источник рипа: DVD-Rip
Автор рипа\энкод: RACER RS
Тип видео: Без хардсаба
Контейнер: AVI
Видео: XviD 64 | 720 x 540 (4:3) | 23,976 fps | ~1500 kbps ;

Аудио:
RUS: AC3 | 48000Hz | 160 Kbps | 2ch
JAP: AC3 | 48000Hz | 192 Kbps | 2ch
Субтитры: Ru - soft [ASS]и[SRT]

Озвучивание: Valkrist
Перевод: Hollow
Мастеринг: 1-32 серии - Valkrist; 33 и последующие серии - tomodachi

MediaInfo: - показать

General
Complete name                            : I:\ARRU Rebuild\Shijou Saikyou no Deshi Kenichi [1-50 of 50][DVD-Rip][HWP][AnimeReactor.ru]\Shijou_Saikyou_no_Deshi_Kenichi_TV_[01_of_50]_(Xvid 720 x 540 AC3x2)_[MCA_&_AnimeReactor_RU].avi
Format                                   : AVI
Format/Info                              : Audio Video Interleave
File size                                : 320 MiB
Duration                                 : 24mn 36s
Overall bit rate                         : 1 816 Kbps
Writing application                      : VirtualDubMod 1.5.10.2 (build 2540/release)
Writing library                          : VirtualDubMod build 2540/release

Video
ID                                       : 0
Format                                   : MPEG-4 Visual
Format profile                           : Advanced Simple@L5
Format settings, BVOP                    : 2
Format settings, QPel                    : No
Format settings, GMC                     : No warppoints
Format settings, Matrix                  : Default (H.263)
Codec ID                                 : XVID
Codec ID/Hint                            : XviD
Duration                                 : 24mn 36s
Bit rate                                 : 1 450 Kbps
Width                                    : 720 pixels
Height                                   : 540 pixels
Display aspect ratio                     : 4:3
Frame rate                               : 23.976 fps
Color space                              : YUV
Chroma subsampling                       : 4:2:0
Bit depth                                : 8 bits
Scan type                                : Progressive
Compression mode                         : Lossy
Bits/(Pixel*Frame)                       : 0.156
Stream size                              : 255 MiB (80%)
Writing library                          : XviD 64

Audio #1
ID                                       : 1
Format                                   : AC-3
Format/Info                              : Audio Coding 3
Mode extension                           : CM (complete main)
Codec ID                                 : 2000
Duration                                 : 24mn 36s
Bit rate mode                            : Constant
Bit rate                                 : 160 Kbps
Channel(s)                               : 2 channels
Channel positions                        : Front: L R
Sampling rate                            : 48.0 KHz
Bit depth                                : 16 bits
Compression mode                         : Lossy
Stream size                              : 28.2 MiB (9%)
Alignment                                : Split accross interleaves
Interleave, duration                     : 42 ms (1.00 video frame)
Interleave, preload duration             : 500 ms
Title                                    : Valkrist [Russian]

Audio #2
ID                                       : 2
Format                                   : AC-3
Format/Info                              : Audio Coding 3
Mode extension                           : CM (complete main)
Codec ID                                 : 2000
Duration                                 : 24mn 36s
Bit rate mode                            : Constant
Bit rate                                 : 192 Kbps
Channel(s)                               : 2 channels
Channel positions                        : Front: L R
Sampling rate                            : 48.0 KHz
Bit depth                                : 16 bits
Compression mode                         : Lossy
Stream size                              : 33.8 MiB (11%)
Alignment                                : Split accross interleaves
Interleave, duration                     : 42 ms (1.00 video frame)
Interleave, preload duration             : 500 ms
Title                                    : Original [Japanese]




Скриншоты: - показать




Дядя Шарик
Релиз от
источник
ARRU & Moscow City Animegroup - MCA & REBUILD ARRU   &   RACER_RS
А вы ничего не забыли?
наверх

Последние поступления