ARRU





Sekirei TV-1
Сэкирэй (первый сезон)(2008)[01-12 из 12 + SP][BDRip][HWP]   Bookmark


Скачать вход / регистрация
Тема на форуме Обсудить аниме (комментариев: 592)
Обсуждение раздачи (комментариев: 12)
ОписаниеSekirei TV-1 / Сэкирэй (первый сезон)(2008)[01-12 из 12 + SP][BDRip][HWP]
Оригинальное название: セキレイ
Английское название: Sekirei
Русское название: Сэкирэй
Страна: Япония
Трансляция:  c 02.07.2008 по 17.09.2008
Жанр: комедия, романтика, фэнтези, этти
Категория: TV
Количество эпизодов: 12  + 1SP
Продолжительность: 25 мин.
Режиссёр: Кусакава Кэйдзё
Автор оригинала: Гокуракуйн Сакурако
Студия:


Описание:
Двадцатилетний Сахаси Минато уже второй год живет в Токио и не может поступить в колледж. В чем же дело? Ведь родители Минато – ученые, да и сам он вроде неглупый? А дело в характере – слабоват парень в коленках, любой стресс тут же выбивает его из колеи. И вот на такого «героя поневоле» с неба, как водится, падает наивная красавица Мусуби, которая радостно объявляет, что она «сэкирэй» - супервоин, созданный таинственной организацией, и что 108 таких, как она, должны вступить в «королевскую битву», в конце которой останется, понятно, только один. Каждый из воинов должен выбрать себе «асикаби» - человека, который может полностью раскрыть его (или ее) потенциал и повысить шансы на конечную победу. Так как талант асикаби довольно редок, то до поры воины могут образовывать целые коммуны, группируясь вокруг одного избранника. Так все и началось…

В чем смысл создания Сэкирэй? Что получит победитель? Кто такой Минато на самом деле? Ответы на эти и другие вопросы даст сериал от создателей «Лиричной волшебницы Нанохи»!

© Hollow, World Art

Названия эпизодов: - показать


01. Sekirei
02. Door to a New House
03. The Green Girl
04. Strange Story About Izumosou
05. The Water Sekirei
06. The Flower Army of Izumo House
07. The Black Sekirei
08. Sealed Imperial Capital
09. The Shawl and the Wind
10. Night Before the Escape
11. Sekirei Mark Disappearance
12. Sekirei of Destiny



001. My First Errand


Источник рипа: BD-Rip
Автор рипа\энкод: Renmei Rei
Тип видео: Без хардсаба
Контейнер: AVI
Видео: XviD (Build 65) | 720 x 404 пикселей | 23,976 кадра/сек | ~1500 Кбит/сек ;

Аудио:
RUS: AC-3 | 48.0 КГц | стерео | 192 Кбит/сек;
JAP:  AC-3 | 48.0 КГц | стерео | 256 Кбит/сек

Субтитры: русские\отдельно [SRT, SSA][Вилли & Hollow]
Перевод: Вилли & Hollow
Озвучивание: Ryc99

MediaInfo: - показать
Общее
Полное имя                               : R:\Video\HWP\[AnimeReactor.RU] Sekirei (TV-1)[01 of 12][BDRip][HWP]\Sekirei (SP)[01 of 01][BDRip][720x404 XviD AC3x2][Ryc99 & AnimeReactor.ru].avi
Формат                                   : AVI
Формат/Информация                        : Audio Video Interleave
Размер файла                             : 148 Мбайт
Продолжительность                        : 10 м.
Общий поток                              : 1966 Кбит/сек
Программа кодирования                    : VirtualDubModRus 1.5.10.2 (build 2542/release)
Библиотека кодирования                   : VirtualDubMod build 2542/release

Видео
Идентификатор                            : 0
Формат                                   : MPEG-4 Visual
Профиль формата                          : Advanced Simple@L5
Параметр BVOP формата                    : 2
Параметр QPel формата                    : Нет
Параметр GMC формата                     : Без точки перехода
Параметр матрицы формата                 : Default (H.263)
Идентификатор кодека                     : XVID
Идентификатор кодека/Подсказка           : XviD
Продолжительность                        : 10 м.
Битрейт                                  : 1500 Кбит/сек
Ширина                                   : 720 пикселей
Высота                                   : 404 пикселя
Соотношение сторон                       : 16:9
Частота кадров                           : 29,970 кадров/сек
Цветовое пространство                    : YUV
Субдискретизация насыщенности            : 4:2:0
Битовая глубина                          : 8 бит
Тип развёртки                            : Прогрессивная
Метод сжатия                             : С потерями
Бит/(Пиксели*Кадры)                      : 0.172
Размер потока                            : 113 Мбайт (76%)
Библиотека кодирования                   : XviD 65

Аудио #1
Идентификатор                            : 1
Формат                                   : AC-3
Формат/Информация                        : Audio Coding 3
Расширение режима                        : CM (complete main)
Параметр Endianness формата              : Big
Идентификатор кодека                     : 2000
Продолжительность                        : 10 м.
Вид битрейта                             : Постоянный
Битрейт                                  : 192 Кбит/сек
Каналы                                   : 2 канала
Расположение каналов                     : Front: L R
Частота                                  : 48,0 КГц
Битовая глубина                          : 16 бит
Метод сжатия                             : С потерями
Размер потока                            : 14,4 Мбайт (10%)
Выравнивание                             : Разделение по промежуткам
Продолжительность промежутка             : 33  мс. (1,00 видеокадр)
Время предзагрузки промежутка            : 500  мс.
Заголовок                                : Russian [Ryc99]

Аудио #2
Идентификатор                            : 2
Формат                                   : AC-3
Формат/Информация                        : Audio Coding 3
Расширение режима                        : CM (complete main)
Параметр Endianness формата              : Big
Идентификатор кодека                     : 2000
Продолжительность                        : 10 м.
Вид битрейта                             : Постоянный
Битрейт                                  : 256 Кбит/сек
Каналы                                   : 2 канала
Расположение каналов                     : Front: L R
Частота                                  : 48,0 КГц
Битовая глубина                          : 16 бит
Метод сжатия                             : С потерями
Размер потока                            : 19,2 Мбайт (13%)
Выравнивание                             : Разделение по промежуткам
Продолжительность промежутка             : 33  мс. (1,00 видеокадр)
Время предзагрузки промежутка            : 500  мс.
Заголовок                                : Japanese [Original]


Скриншоты: - показать




Внимание: Пересобран восьмой эпизод. Прошу прощение за неудобства.
Дядя Шарик
Релиз от
источник
ARRU & RenmeiRei & REBUILD ARRU & Ryc99
А вы ничего не забыли?
наверх

Последние поступления