ARRU





Kaichou wa Maid-sama!
Президент студсовета - горничная! (2010)[01-26 из 26 + SP][BD-Rip][HWP]   Bookmark


Скачать вход / регистрация
Тема на форуме Обсудить аниме (комментариев: 156)
Обсуждение раздачи (комментариев: 295)
Смотреть онлайн
ОписаниеKaichou wa Maid-sama! / Президент студсовета - горничная! (2010)[01-26 из 26 + SP][BD-Rip][HWP]
Оригинальное название: 会長はメイド様!
Английское название: Class President is a Maid!
Русское название: Президент студсовета - горничная!
Страна: Япония
Период трансляции: c 02.04.2010 по 24.09.2010
Жанр: комедия, романтика, школа, сёдзё
Категория: TV
Количество эпизодов: ТВ (>26 эп.)
Продолжительность: 25 мин.
Автор оригинала: Фудзивара Хиро
Студия:


Описание:
Мужская частная школа Сэйка, славная бесчинствами своих воспитанников, когда-то наводила ужас на всю округу. Для «смягчения нравов» в ней ввели совместное обучение, но результат пока очень и очень сомнителен. Впрочем, Мисаки Аюдзава – спортсменка, отличница и первая в истории Сэйки девушка-президент школьного совета – твердо решила изменить положение и принести в храм науки порядок и дисциплину. Неудивительно, что бескомпромиссная Мисаки в среде парней считается тираном и мужененавистницей, а среди немногочисленных учениц – идеалом и единственной надеждой. Но, как водится в аниме, не все так просто…

Семью Аюдзавы бросил отец, оставив на память значительный долг. Чтобы помочь матери и поднять младшую сестренку, девушка вынуждена подрабатывать в мэйд-кафе на другом конце города, разумеется, всячески скрывая это от школы. Но все тайное становится явным, и Мисаки прямо на работе встречается с Такуми Усуем, не просто одноклассником, а одним из школьных идолов. Однако разоблачения не последовало, хотя пережить «президенту-горничной» пришлось немало. И чего же хочет Такуми, который второй год наблюдает школьную жизнь как бы со стороны? Кто смотрел «Карэкано» и «Спецкласс А», тот знает, чего они все хотят!
© Hollow


Названия эпизодов:
01. Misaki Is a Maid!
02. A Maid Even at the School Festival
03. Misaki is What Color? Natural Color?
04. Net Idol Aoi-chan
05. House-sitting for the First Time
06. Man, Ayuzawa School!
07. Enter Miyabigaoka Academy`s Student Council President
08. Misaki, to Miyabigaoka Academy
09. Even the Peach Boy Becomes a Maid
10. Sakura`s Love for Indies
11. Close in on Usui Takumi`s Secret!
12. A Maid Even at the Sports Festival
13. Moron, Deliquent and Hero
14. 1-7 Kanou Soutarou
15. A Bespectacled Bunny in a Tour Around the School
16. Maid Latte at the Sea Resort
17. Usui, Surrounded By the Enemy
18. Even The Maid`s A Footman
19. Re-paired In The Footman Audition
20. The Vice-President`s a Prince!? Aoi and the Happy Friends
21. Usui`s Rival? Shintani Hinata
22. Playing Tag at the Outdoor School
23. Maid Latte Sweet Feast
24. Melting Things Away with Latte Magic
25. Hinata, Misaki and Usui
26. You`re Really Sly Ayuzawa, Usui You idiot!

SP (27). 1. It`s an Extra



Источник рипа: BD-Rip [Yoursei-raws]
Автор рипа\энкод: Renmei Rei
Тип видео: Без хардсаба
Контейнер: AVI
Видео: XviD (Build 65) | 720 x 404 пикселей | 23,976 кадра/сек | ~1500 Кбит/сек ;

Аудио:
RUS: AC-3 | 48.0 КГц | стерео | 224 Кбит/сек;
JAP:  AC-3 | 48.0 КГц | стерео | 256 Кбит/сек

Субтитры: русские\отдельно [SRT][Tany Sword & sys3x & Rictorn]
Озвучивание: Carrier88 & Milirina
Перевод: Carrier88

MediaInfo: - показать
Общее
Полное имя                               : R:\Video\HWP\[AnimeReactor.RU] Kaichou wa Maid-sama! (TV)[1-26 of 26 + SP)[BDRip][HWP]\Kaichou wa Maid-sama! (SP)[27][BDRip][720x404 XviD AC3x2][Carrier88 & Kasumi & AnimeReactor.RU].avi
Формат                                   : AVI
Формат/Информация                        : Audio Video Interleave
Размер файла                             : 192 Мбайт
Продолжительность                        : 13 м.
Общий поток                              : 1996 Кбит/сек
Программа кодирования                    : VirtualDubModRus 1.5.10.2 (build 2542/release)
Библиотека кодирования                   : VirtualDubMod build 2542/release

Видео
Идентификатор                            : 0
Формат                                   : MPEG-4 Visual
Профиль формата                          : Advanced Simple@L5
Параметр BVOP формата                    : 2
Параметр QPel формата                    : Нет
Параметр GMC формата                     : Без точки перехода
Параметр матрицы формата                 : Default (H.263)
Идентификатор кодека                     : XVID
Идентификатор кодека/Подсказка           : XviD
Продолжительность                        : 13 м.
Битрейт                                  : 1501 Кбит/сек
Ширина                                   : 720 пикселей
Высота                                   : 404 пикселя
Соотношение сторон                       : 16:9
Частота кадров                           : 23,976 кадра/сек
Цветовое пространство                    : YUV
Субдискретизация насыщенности            : 4:2:0
Битовая глубина                          : 8 бит
Тип развёртки                            : Прогрессивная
Метод сжатия                             : С потерями
Бит/(Пиксели*Кадры)                      : 0.215
Размер потока                            : 145 Мбайт (75%)
Библиотека кодирования                   : XviD 65

Аудио #1
Идентификатор                            : 1
Формат                                   : AC-3
Формат/Информация                        : Audio Coding 3
Расширение режима                        : CM (complete main)
Параметр Endianness формата              : Big
Идентификатор кодека                     : 2000
Продолжительность                        : 13 м.
Вид битрейта                             : Постоянный
Битрейт                                  : 224 Кбит/сек
Каналы                                   : 2 канала
Расположение каналов                     : Front: L R
Частота                                  : 48,0 КГц
Битовая глубина                          : 16 бит
Метод сжатия                             : С потерями
Размер потока                            : 21,6 Мбайт (11%)
Выравнивание                             : Разделение по промежуткам
Продолжительность промежутка             : 42  мс. (1,00 видеокадр)
Время предзагрузки промежутка            : 500  мс.
Заголовок                                : Russian [Carrier88 & Kasumi]

Аудио #2
Идентификатор                            : 2
Формат                                   : AC-3
Формат/Информация                        : Audio Coding 3
Расширение режима                        : CM (complete main)
Параметр Endianness формата              : Big
Идентификатор кодека                     : 2000
Продолжительность                        : 13 м.
Вид битрейта                             : Постоянный
Битрейт                                  : 256 Кбит/сек
Каналы                                   : 2 канала
Расположение каналов                     : Front: L R
Частота                                  : 48,0 КГц
Битовая глубина                          : 16 бит
Метод сжатия                             : С потерями
Размер потока                            : 24,7 Мбайт (13%)
Выравнивание                             : Разделение по промежуткам
Продолжительность промежутка             : 42  мс. (1,00 видеокадр)
Время предзагрузки промежутка            : 500  мс.
Заголовок                                : Japanese [Original]


Скриншоты: - показать





Внимание: Незначительная ошибка в подписке тегов в русской аудио дорожке. На самом деле Каsumi не при чем
Дядя Шарик
Релиз от
источник
ARRU & Anything-Group & RenmeiRei & REBUILD ARRU
А вы ничего не забыли?
наверх

Последние поступления