ARRU





Blue Seed
Голубое семя (TV)(1994)[01-24 из 24]+(Special)[01-13 of 13][BD-Rip][720p]   Bookmark


Скачать вход / регистрация
Тема на форуме Обсудить аниме (комментариев: 3)
Обсуждение раздачи (комментариев: 13)
ОписаниеBlue Seed / Голубое семя (TV)(1994)[01-24 из 24]+(Special)[01-13 of 13][BD-Rip][720p]
Оригинальное название: ブルーシード
Английское название: Blue Seed
Русское название: Голубое семя

Страна: Япония
Период трансляции: c 05.10.1994 по 29.03.1995
Жанр: комедия, романтика, ужасы, фантастика
Количество эпизодов ТВ: 26
Продолжительность: 23 мин
Количество эпизодов Special: 13
Продолжительность: 3 мин

Студия:
Режиссёр: Камия Дзюн
Автор оригинала: Такада Юдзо

Описание:
В самом начале истории Японии юная дева Кусинада-химз была обещана богу Сусаноо-но-Микото за победу над восьмигпавым драконом Ямато-но-Ороти. С тех пор для того, чтобы сдерживать нападение на Землю демонов-тагами, все перевоплощения Кусинады-химэ должны приноситься в жертву Сусаноо.
Главной героиня "Голубого семени -пятнадцатилетняя школьница Фудзимия Момидзи. перевоплощение Кусинады-химэ После предполагаемой гибели ее сестры-близнеца Каэдэ охрану Момидзи взяла на себя секретная японская правительственная организация,"сборная солянка" из специалистов всех областей знания и умения. Теперь они все стоят перед сложнейшей проблемой - можно ли спасти мир без возрождения человеческих жертвоприношений?
Другой защитник Момидзи - Кусанаги Мамору, демон-арагами, которому Ямато-но-Ороти приказал не допустить принесения перевоплощения Кусинады-химэ в жертву богу, чтобы в должное время демоны смогли навсегда ее уничтожить и захватить человечество. Вскоре, однако, Мамору начинает защищать Момидзи не только по приказу, но и по зову сердца.

Дополнительная информация.
Голубое семя, это маленький голубой кристалл содержащий души - митама.

Названия эпизодов:
01. Princess Kushinada
02. It's Cruel! It's Mysterious! It's My Destiny!
03. It's Spring! It's the Capital! I'll Do My Best!
04. More Bad Luck! Why Does This Always Happen to Me?
05. Suprise! She's the Mother of Science!
06. Complicated and Hard to Understand! Being a Man Puts You Into Such a Difficult Position!
07. I'm Fired Up! I'll Do It! Because I'm the Kushinada!
08. What? How Strange! A Rival Appears!
09. Are You Serious? Is This a Dream? An Exciting Date!
10. Innocence! Love! My First Kiss!
11. Irritating! Jealous?! Unbelievable!
12. Can You Feel It? I Can't Ignore It! An Ominous Premonition of Catastrophe
13. I Love You! This is so Extreme! It's Time to Confess!
14. A Chase Down Yamato Highway! Love Under Fire!
15. Lost & Trembling on a Trip to Michinoku
16. Japan is a Paradise! Tears in Wakasa
17. Let it Bloom Japan! A Blizzard of One-sided Love!
18. Geez! Oh, Man! Sakura's Not Good Enough?
19. Heat Haze! Start on a Journey! Love, I Won't be Far From You!
20. I'm Home! Izumo! The Prologue of Hope!
21. Goodbye? No Way! Separation with Tears?
22. Sadness, Fate, Momiji Kushinada
23. Meeting Again, Starting the Journey, I Won't Give Up!
24. The Setting Sun, the Coming Day, a Private Time for Each One
25. All or Nothing! Decision! My Fate!
26. New Soul



Качество рипа: BDRip
Автор рипа: 附sfv&md5
Тип видео: Без хардсаба
Контейнер: mkv
Видео: AVC (х264)| 960x720 | 23.976 fps | ~2000Kbps


Аудио:
RUS: MP3 | 48000Hz | 128 Kbps | 2ch
JAP: AC3 | 48000Hz | 448 Kbps | 2ch

Перевод: Благодира Юрия и Тарасова Алексея
Озвучивание: Persona99

MediaInfo: - показать

Общее
Формат                           : Matroska
Версия формата                   : Version 2
Размер файла                     : 536 Мбайт
Продолжительность                : 25 м.
Общий поток                      : 2886 Кбит/сек
Дата кодирования                 : UTC 2012-07-21 05:12:02
Программа кодирования            : mkvmerge v3.4.0 сборка от May 15 2010 09:38:20
Библиотека кодирования           : libebml v0.8.0 + libmatroska v0.9.0

Видео
Идентификатор                    : 1
Формат                           : AVC
Формат/Информация                : Advanced Video Codec
Профиль формата                  : High@L4.1
Параметр CABAC формата           : Да
Параметр ReFrames формата        : 12 кадров
Идентификатор кодека             : V_MPEG4/ISO/AVC
Продолжительность                : 25 м.
Битрейт                          : 2252 Кбит/сек
Ширина                           : 960 пикселей
Высота                           : 720 пикселей
Соотношение сторон               : 4:3
Частота кадров                   : 23,976 кадра/сек
Цветовое пространство            : YUV
Субдискретизация насыщенности    : 4:2:0
Битовая глубина                  : 8 бит
Тип развёртки                    : Прогрессивная
Бит/(Пиксели*Кадры)              : 0.136
Размер потока                    : 418 Мбайт (78%)
Заголовок                        : 附sfv&md5
Библиотека кодирования           : x264 core 114 r1913 5fd3dce
Язык                             : Japanese
Default                          : Да
Forced                           : Нет

Аудио #1
Идентификатор                    : 2
Формат                           : MPEG Audio
Версия формата                   : Version 1
Профиль формата                  : Layer 3
Режим                            : Joint stereo
Расширение режима                : MS Stereo
Идентификатор кодека             : A_MPEG/L3
Идентификатор кодека/Подсказка   : MP3
Продолжительность                : 25 м.
Вид битрейта                     : Постоянный
Битрейт                          : 128 Кбит/сек
Каналы                           : 2 канала
Частота                          : 48,0 КГц
Метод сжатия                     : С потерями
Размер потока                    : 23,8 Мбайт (4%)
Заголовок                        : Persona99
Язык                             : Russian
Default                          : Да
Forced                           : Нет

Аудио #2
Идентификатор                    : 3
Формат                           : AC-3
Формат/Информация                : Audio Coding 3
Расширение режима                : CM (complete main)
Идентификатор кодека             : A_AC3
Продолжительность                : 25 м.
Вид битрейта                     : Постоянный
Битрейт                          : 448 Кбит/сек
Каналы                           : 2 канала
Расположение каналов             : Front: L R
Частота                          : 48,0 КГц
Битовая глубина                  : 16 бит
Метод сжатия                     : С потерями
Размер потока                    : 83,2 Мбайт (16%)
Заголовок                        : Original
Язык                             : Japanese
Default                          : Нет
Forced                           : Нет

Текст
Идентификатор                    : 4
Формат                           : UTF-8
Идентификатор кодека             : S_TEXT/UTF8
Идентификатор кодека/Информация  : UTF-8 Plain Text
Заголовок                        : от Благодира Юрия и Тарасова Алексея
Язык                             : Russian
Default                          : Нет
Forced                           : Нет


Скриншоты: - показать




От себя:
Данный релиз был предоставлен товарищем mangust93, за что ему огромное спасибо.
Дядя Шарик
Релиз от
источник
ARRU & Get Smart & REBUILD ARRU
А вы ничего не забыли?
наверх

Последние поступления