ARRU





Dance In The Vampire Bund
Танец на набережной вампиров (2010)[01 - 12 из 12][BD-Rip][HWP]   Bookmark


Скачать вход / регистрация
Тема на форуме Обсудить аниме (комментариев: 260)
Обсуждение раздачи (комментариев: 140)
ОписаниеDance In The Vampire Bund / Танец на набережной вампиров (2010)[01 - 12 из 12][BD-Rip][HWP]
Оригинальное название: ダンス イン ザ ヴァンパイアバンド
Английское название: Dance In The Vampire Bund
Русское название: Танец на набережной вампиров
Страна: Япония
Год выпуска / период трансляции: c 07.01.2010
Жанр: приключения, вампиры, этти
Возрастное ограничение: 16 +
Количество эпизодов ТВ: 12
Продолжительность: 25 мин
Режиссёр:  Симбо Акиюки
Автор оригинала: Тамаки Нодзому
Студия:


Описание:
Веками сородичи графа Дракулы тайно правили миром и скрывали свое существование, уводя людской интерес в сторону фольклора и выдумок. Но ничто не длится вечно, и дальний потомок графа, принцесса Мина Цепеш, юная правительница всех вампиров, решила открыться миру и поселиться среди людей. Для этого понадобилось всего-то уплатить государственный долг одной азиатской страны и втихомолку, не называя заказчика, воздвигнуть в Токийском заливе огромный искусственный остров, который очень скоро все станут звать Берегом Вампиров.

Признание существования расы вампиров и новость о создании их анклава на территории Японии произвели во всем мире эффект разорвавшейся бомбы. Очень многие люди и нелюди, мягко говоря, не обрадовались подобному заявлению, а еще большее число решило половить рыбку в мутной воде. Покушения на Мину Цепеш посыпались с обеих сторон, да вот убить бессмертную правительницу непросто, особенно когда ее защищают верные люди, а среди них Акира Кобураги Регендорф – молодой вервольф и личный телохранитель принцессы, с детства принесший ей клятву верности. Но что может получиться из вампирского Гонконга – Вавилона нового времени, места смешения рас и культур? Ответ даст творение студии SHAFT!
© Hollow

Названия эпизодов:
01. Promo Night
02. Howling
03. Teen Wolf
04. Interview with Vampire
05. Shadow of Vampire
06. From Dusk Till Dawn
07. Innocent Blood
08. Near Dark
09. Lost Boy
10. Walpurgis Night
11. Underworld
12. Dance in the Vampire Bund


Источник рипа: BD-Rip [Yoursei-raws]
Автор рипа\энкод: Renmei Rei
Тип видео: Без хардсаба
Контейнер: AVI
Видео: XviD (Build 65) | 720 x 404 пикселей | 23,976 кадра/сек | ~1500 Кбит/сек ;

Аудио:
RUS: AC-3 | 48.0 КГц | стерео | 192 Кбит/сек;
JAP:  AC-3 | 48.0 КГц | стерео | 256 Кбит/сек

Субтитры: русские\отдельно [SRT,SSA][Shift]
Перевод: -Flash-
Озвучивание: Shachiburi

MediaInfo: - показать
Общее
Полное имя                               : R:\Video\HWP\[AnimeReactor.RU] Dance In The Vampire Bund (TV)[1-12 of 12][BDRip][HWP]\Dance In The Vampire Bund [01 of 12][BDrip][720x404  XviD AC3x2][AnimeReactor.RU].avi
Формат                                   : AVI
Формат/Информация                        : Audio Video Interleave
Размер файла                             : 331 Мбайт
Продолжительность                        : 23 м.
Общий поток                              : 1962 Кбит/сек
Программа кодирования                    : VirtualDubModRus 1.5.10.2 (build 2542/release)
Библиотека кодирования                   : VirtualDubMod build 2542/release

Видео
Идентификатор                            : 0
Формат                                   : MPEG-4 Visual
Профиль формата                          : Advanced Simple@L5
Параметр BVOP формата                    : 2
Параметр QPel формата                    : Нет
Параметр GMC формата                     : Без точки перехода
Параметр матрицы формата                 : Default (H.263)
Идентификатор кодека                     : XVID
Идентификатор кодека/Подсказка           : XviD
Продолжительность                        : 23 м.
Битрейт                                  : 1500 Кбит/сек
Ширина                                   : 720 пикселей
Высота                                   : 404 пикселя
Соотношение сторон                       : 16:9
Частота кадров                           : 23,976 кадра/сек
Цветовое пространство                    : YUV
Субдискретизация насыщенности            : 4:2:0
Битовая глубина                          : 8 бит
Тип развёртки                            : Прогрессивная
Метод сжатия                             : С потерями
Бит/(Пиксели*Кадры)                      : 0.215
Размер потока                            : 253 Мбайт (76%)
Библиотека кодирования                   : XviD 65

Аудио #1
Идентификатор                            : 1
Формат                                   : AC-3
Формат/Информация                        : Audio Coding 3
Расширение режима                        : CM (complete main)
Параметр Endianness формата              : Big
Идентификатор кодека                     : 2000
Продолжительность                        : 23 м.
Вид битрейта                             : Постоянный
Битрейт                                  : 192 Кбит/сек
Каналы                                   : 2 канала
Расположение каналов                     : Front: L R
Частота                                  : 48,0 КГц
Битовая глубина                          : 16 бит
Метод сжатия                             : С потерями
Размер потока                            : 32,4 Мбайт (10%)
Выравнивание                             : Разделение по промежуткам
Продолжительность промежутка             : 42  мс. (1,00 видеокадр)
Время предзагрузки промежутка            : 500  мс.
Заголовок                                : Russian [Shachiburi]

Аудио #2
Идентификатор                            : 2
Формат                                   : AC-3
Формат/Информация                        : Audio Coding 3
Расширение режима                        : CM (complete main)
Параметр Endianness формата              : Big
Идентификатор кодека                     : 2000
Продолжительность                        : 23 м.
Вид битрейта                             : Постоянный
Битрейт                                  : 256 Кбит/сек
Каналы                                   : 2 канала
Расположение каналов                     : Front: L R
Частота                                  : 48,0 КГц
Битовая глубина                          : 16 бит
Метод сжатия                             : С потерями
Размер потока                            : 43,2 Мбайт (13%)
Выравнивание                             : Разделение по промежуткам
Продолжительность промежутка             : 42  мс. (1,00 видеокадр)
Время предзагрузки промежутка            : 500  мс.
Заголовок                                : Japanese [Original]


Скриншоты: - показать


Дядя Шарик
Релиз от
источник
ARRU & Shachiburi & RenmeiRei & REBUILD ARRU
А вы ничего не забыли?
наверх

Последние поступления