ARRU





Hotarubi no Mori e
Туда, где мерцают светлячки (мувик)(2011)[BD-Rip][HWP]   Bookmark


Скачать вход / регистрация
Тема на форуме Обсудить фильм (комментариев: 7)
Обсуждение раздачи (комментариев: 6)
ОписаниеHotarubi no Mori e / Туда, где мерцают светлячки (мувик)(2011)[BD-Rip][HWP]
Оригинальное название: Into the Forest of Fireflies' Light
Английское название: Hotarubi no Mori e
Русское название: Туда, где мерцают светлячки / В лесу мерцания светлячков
Страна: Япония
Год выпуска: 2011
Жанр:  романтика, драма, мистика
Категория: Movie
Количество эпизодов: 1
Продолжительность: 45 минут
Студия:

Режиссёр: Омори Такахиро
Снято по манге: Hotarubi no Mori e
Автор оригинала: Мидорикава Юки

Описание:
Эта история рассказывает о Хотару, маленькой девочке, которая потерялась в заколдованном лесу, где живут призраки. Там, на грани меж сном и реальностью, пред Хотару вдруг появляется таинственный мальчик по имени Гин, но девочка боится даже прикоснуться к нему, опасаясь, что он исчезнет. (c)

Источник рипа: BD-Rip [Zero-Raws]
Автор рипа\энкод: Renmei Rei
Тип видео: Без хардсаба
Контейнер: AVI
Видео: XviD (Build 64) | 720 x 404 | 23,976 fps | ~1600 kbps ;


Аудио:
RUS1: AC-3 | 48.0 КГц | стерео | 256 Кбит/сек • многоголосый закадровый - ARRU WORKSHOP;
RUS2: AC-3 | 48.0 КГц | стерео | 256 Кбит/сек • одноголосый закадровый - NASTR;
JAP:  AC-3 | 48.0 КГц | стерео | 256 Кбит/сек • оригинал

Субтитры:
• русские\отдельно [SRT, SSA][Advantage]
• русские\отдельно [SRT, SSA][Sigitt]

MediaInfo: - показать
Общее
Полное имя                               : R:\Video\HWP\[AnimeReactor.RU] Hotarubi no Mori e (movie)[BD-Rip][HWP]\Hotarubi no Mori e [720x404 XviD AC3x3][MCA & ARRU Workshop].avi
Формат                                   : AVI
Формат/Информация                        : Audio Video Interleave
Размер файла                             : 758 Мбайт
Продолжительность                        : 44 м.
Общий поток                              : 2355 Кбит/сек
Программа кодирования                    : VirtualDubModRus 1.5.10.2 (build 2542/release)
Библиотека кодирования                   : VirtualDubMod build 2542/release

Видео
Идентификатор                            : 0
Формат                                   : MPEG-4 Visual
Профиль формата                          : Advanced Simple@L5
Параметр BVOP формата                    : 2
Параметр QPel формата                    : Нет
Параметр GMC формата                     : Без точки перехода
Параметр матрицы формата                 : Default (H.263)
Идентификатор кодека                     : XVID
Идентификатор кодека/Подсказка           : XviD
Продолжительность                        : 44 м.
Битрейт                                  : 1568 Кбит/сек
Ширина                                   : 720 пикселей
Высота                                   : 404 пикселя
Соотношение сторон                       : 16:9
Частота кадров                           : 23,976 кадра/сек
Цветовое пространство                    : YUV
Субдискретизация насыщенности            : 4:2:0
Битовая глубина                          : 8 бит
Тип развёртки                            : Прогрессивная
Метод сжатия                             : С потерями
Бит/(Пиксели*Кадры)                      : 0.225
Размер потока                            : 505 Мбайт (67%)
Библиотека кодирования                   : XviD 64

Аудио #1
Идентификатор                            : 1
Формат                                   : AC-3
Формат/Информация                        : Audio Coding 3
Расширение режима                        : CM (complete main)
Параметр Endianness формата              : Big
Идентификатор кодека                     : 2000
Продолжительность                        : 44 м.
Вид битрейта                             : Постоянный
Битрейт                                  : 256 Кбит/сек
Каналы                                   : 2 канала
Расположение каналов                     : Front: L R
Частота                                  : 48,0 КГц
Битовая глубина                          : 16 бит
Метод сжатия                             : С потерями
Размер потока                            : 82,4 Мбайт (11%)
Выравнивание                             : Разделение по промежуткам
Продолжительность промежутка             : 42  мс. (1,00 видеокадр)
Время предзагрузки промежутка            : 500  мс.
Заголовок                                : Russian [ARRU WORKSHOP]

Аудио #2
Идентификатор                            : 2
Формат                                   : AC-3
Формат/Информация                        : Audio Coding 3
Расширение режима                        : CM (complete main)
Параметр Endianness формата              : Big
Идентификатор кодека                     : 2000
Продолжительность                        : 44 м.
Вид битрейта                             : Постоянный
Битрейт                                  : 256 Кбит/сек
Каналы                                   : 2 канала
Расположение каналов                     : Front: L R
Частота                                  : 48,0 КГц
Битовая глубина                          : 16 бит
Метод сжатия                             : С потерями
Размер потока                            : 82,4 Мбайт (11%)
Выравнивание                             : Разделение по промежуткам
Продолжительность промежутка             : 42  мс. (1,00 видеокадр)
Время предзагрузки промежутка            : 500  мс.
Заголовок                                : Russian [NASTR]

Аудио #3
Идентификатор                            : 3
Формат                                   : AC-3
Формат/Информация                        : Audio Coding 3
Расширение режима                        : CM (complete main)
Параметр Endianness формата              : Big
Идентификатор кодека                     : 2000
Продолжительность                        : 44 м.
Вид битрейта                             : Постоянный
Битрейт                                  : 256 Кбит/сек
Каналы                                   : 2 канала
Расположение каналов                     : Front: L R
Частота                                  : 48,0 КГц
Битовая глубина                          : 16 бит
Метод сжатия                             : С потерями
Размер потока                            : 82,4 Мбайт (11%)
Выравнивание                             : Разделение по промежуткам
Продолжительность промежутка             : 42  мс. (1,00 видеокадр)
Время предзагрузки промежутка            : 500  мс.
Заголовок                                : Japanese [Original]


Скриншоты: - показать


Дядя Шарик
Релиз от
источник
ARRU & Moscow City Animegroup - MCA & Мастерская АРРУ & RenmeiRei & REBUILD ARRU   &   Advantage
А вы ничего не забыли?
наверх

Последние поступления