ARRU





Kannagi: Crazy Shrine Maidens
Каннаги: Девы святого дерева (2008)[1-13 из 13 + Special [BDRip 720p]   Bookmark


Скачать вход / регистрация
Тема на форуме Обсудить аниме (комментариев: 58)
Обсуждение раздачи (комментариев: 119)
Смотреть онлайн
ОписаниеKannagi: Crazy Shrine Maidens / Каннаги: Девы святого дерева (2008)[1-13 из 13 + Special [BDRip 720p]
Оригинальное название: かんなぎ
Английское название: Kannagi: Crazy Shrine Maidens
Русское название: Каннаги: Девы святого дерева
Страна: Япония
Год выпуска / период трансляции: c 04.10.2008 по 27.12.2008
Жанр: комедия, фэнтези
Категория: TV
Количество эпизодов: 13
Продолжительность: 25 мин
Студия:

Режиссёр: Ямамото Ютака
Снято по манге: Kannagi
Автор оригинала: Такэнаси Эри

Описание:
В детстве Дзин Микурия любил играть в старом синтоистском храме под вечнозеленой священной нагеей. Парень вырос, храм снесли, а дерево спилили. Художник-любитель Дзин, тонко чувствующий природу и не чуждый сверхъестественного, выпросил кусок священного дерева, чтобы вырезать из него статую девушки. Обняв свое творение, Дзин вознес горячую молитву богам, прося их простить людей за неразумие. Разумеется, произошло чудо, и кусок дерева превратился в красавицу по имени Наги – земное воплощение богини-хранительницы окрестных земель. Освоившись в новом мире, Наги поняла, что силы у нее не те и исполнять свои обязанности придется с активной помощью нового знакомого. Погрузившись в медитацию по поводу стратегии борьбы со злом, богиня не заметила, как заскучавший хозяин включил ТВ, и, как на грех, попал на аниме жанра «махо-седзе». Знамение судьбы, понимаете ли… Отныне Наги решила вести жизнь обычной школьницы, а в промежутках бороться за любовь и справедливость на вверенной территории, назначив бедного Дзина на роль местного Мамору.

Увидев, как Наги развлекается, решила воплотиться и ее младшая сестренка Занге-тян, богиня соседних земель. Только она смотрела другое аниме, в итоге решив стать в мире смертных тайной поп-звездой. Познакомившись с этим улетным комедийно-пародийным сериалом от режиссера «Канон-2006» и «Судзумии», вы поймете, что он далеко ушел от классического сюжета «Пигмалиона»!

© Hollow



Названия эпизодов - показать

01. The Shrine Girl
02. Gyokuon Attack!
03. The School's Goddess
04. Sisters
05. Discovery! Love the Dining Table God
06. Nagi-tan`s Heart-stopping Craziness
07. Cutie Big Pinch! The Super Spicy Hitsumabushi Strikes Back
08. The Hill of Straying Storm
09. Embarassing School Comedy
10. Mike Takako, the Karaoke Warrior
11. Yet, Uncertain
12. Truly Ephermal
13. Jin, Lovestruck
   DVD-спэшл:
14. If You Are A Shrine Maiden... (27.05.2009)
+ Bonus


Источник рипа: BD-Rip
Автор рипа\энкод: RACER RS
Тип видео: Без хардсаба
Контейнер: MKV
Видео: AVC1 core 120 High@L5.1 | 1280 x 720 (16:9) | 23,976 fps | 2900 kbps ;


Аудио:
RUS: AC3 | 48.0 KHz | stereo | 256 Kbps;
JAP: AC3 | 48.0 KHz | stereo | ~ 256 Kbps

Субтитры:
RU - soft [ASS][встроенные][Advantage]
Перевод: Xyanide, anisab-subs, Matador
Озвучивание: Valkrist & Keneretta

MediaInfo: - показать
Unique ID                                : 213521241227115748633864950725714230195 (0xA0A2B1FA36A0643ABD35CA6ADF2DBBB3)
Complete name                            : I:\ARRU Rebuild HD\Kannagi Crazy Shrine Maidens [1-13 of 13 + special] (BDrip 1280x720 AVC1 AC3x2) [AnimeReactor.ru]\Kannagi [01 of 13] (BDrip 1280x720 AVC1 AC3x2) [MCA & Animereactor].mkv
Format                                   : Matroska
Format version                           : Version 2
File size                                : 578 MiB
Duration                                 : 23mn 41s
Overall bit rate                         : 3 414 Kbps
Encoded date                             : UTC 2012-07-19 08:26:26
Writing application                      : mkvmerge v5.3.0 ('I could have danced' built on Feb  9 2012 10:38:07
Writing library                          : libebml v1.2.3 + libmatroska v1.3.0

Video
ID                                       : 1
Format                                   : AVC
Format/Info                              : Advanced Video Codec
Format profile                           : High@L5.1
Format settings, CABAC                   : No
Format settings, ReFrames                : 2 frames
Muxing mode                              : Header stripping
Codec ID                                 : V_MPEG4/ISO/AVC
Duration                                 : 23mn 41s
Bit rate                                 : 2 900 Kbps
Width                                    : 1 280 pixels
Height                                   : 720 pixels
Display aspect ratio                     : 16:9
Frame rate mode                          : Variable
Frame rate                               : 23.976 fps
Color space                              : YUV
Chroma subsampling                       : 4:2:0
Bit depth                                : 8 bits
Scan type                                : Progressive
Bits/(Pixel*Frame)                       : 0.131
Stream size                              : 480 MiB (83%)
Writing library                          : x264 core 120 r2146M bcd41db
Encoding settings                        : cabac=0 / ref=1 / deblock=1:0:0 / analyse=0x3:0x133 / me=hex / subme=10 / psy=1 / psy_rd=1.00:0.20 / mixed_ref=0 / me_range=16 / chroma_me=1 / trellis=2 / 8x8dct=1 / cqm=0 / deadzone=21,11 / fast_pskip=1 / chroma_qp_offset=-3 / threads=8 / sliced_threads=0 / nr=0 / decimate=1 / interlaced=0 / bluray_compat=0 / constrained_intra=0 / bframes=1 / b_pyramid=0 / b_adapt=2 / b_bias=0 / direct=3 / weightb=1 / open_gop=0 / weightp=2 / keyint=230 / keyint_min=23 / scenecut=40 / intra_refresh=0 / rc_lookahead=0 / rc=2pass / mbtree=1 / bitrate=2900 / ratetol=1.0 / qcomp=0.60 / qpmin=10 / qpmax=51 / qpstep=4 / cplxblur=20.0 / qblur=0.5 / ip_ratio=1.40 / aq=1:1.00
Language                                 : Japanese
Default                                  : Yes
Forced                                   : No

Audio #1
ID                                       : 2
Format                                   : AC-3
Format/Info                              : Audio Coding 3
Mode extension                           : CM (complete main)
Muxing mode                              : Header stripping
Codec ID                                 : A_AC3
Duration                                 : 23mn 41s
Bit rate mode                            : Constant
Bit rate                                 : 256 Kbps
Channel(s)                               : 2 channels
Channel positions                        : Front: L R
Sampling rate                            : 48.0 KHz
Bit depth                                : 16 bits
Compression mode                         : Lossy
Stream size                              : 43.4 MiB (7%)
Title                                    : Valkrist & Keneretta
Language                                 : Russian
Default                                  : Yes
Forced                                   : No

Audio #2
ID                                       : 3
Format                                   : AC-3
Format/Info                              : Audio Coding 3
Mode extension                           : CM (complete main)
Muxing mode                              : Header stripping
Codec ID                                 : A_AC3
Duration                                 : 23mn 41s
Bit rate mode                            : Constant
Bit rate                                 : 256 Kbps
Channel(s)                               : 2 channels
Channel positions                        : Front: L R
Sampling rate                            : 48.0 KHz
Bit depth                                : 16 bits
Compression mode                         : Lossy
Stream size                              : 43.4 MiB (7%)
Title                                    : Original
Language                                 : Japanese
Default                                  : No
Forced                                   : No

Text
ID                                       : 4
Format                                   : ASS
Codec ID                                 : S_TEXT/ASS
Codec ID/Info                            : Advanced Sub Station Alpha
Compression mode                         : Lossless
Language                                 : Russian
Default                                  : No
Forced                                   : No

Скриншоты: - показать




Дядя Шарик
Релиз от
источник
ARRU & Moscow City Animegroup - MCA & ADVANTAGE & REBUILD ARRU   &   RACER_RS
А вы ничего не забыли?
наверх

Последние поступления