ARRU





A Channel: The Animation
Первый канал [01-12 из 12][BDRip][HWP]   Bookmark


Скачать вход / регистрация
Тема на форуме Обсудить аниме (комментариев: 11)
Обсуждение раздачи (комментариев: 17)
ОписаниеA Channel: The Animation / Первый канал [01-12 из 12][BDRip][HWP]
Английское название: A Channel The Animation
Русское название: Первый канал

Страна: Япония
Жанр: комедия, повседневность
Год выхода: 2011
Колличество серий: 12
Продолжительность: 25 мин
Студия: Studio Gokumi

Описание:
В средней школе Рун и Тору были почти неразлучны, но разница в один класс привела к тому, что, с поступлением Рун в старшую школу, они практически расстались на целый год. Веселая и непосредственная Рун не скучала, а целеустремленная малышка Тору, сжав зубы, готовилась к экзаменам, чтобы попасть в ту же школу Аойгаока. Наконец, счастливая младшая подруга прибежала к старшей домой, чтобы сообщить радостную новость – и застала в комнате Рун двух совершенно незнакомых девушек. Это еще что, но чем одна из них занималась с хозяйкой комнаты на кровати?!

Так и выяснилось, что в новой школе Рун крепко подружилась с высокой, эффектной Юко и очкастой умницей Наги. Только места в сердце хватит всем – такова женская мудрость, которой не учат в школе, зато у собравшихся ее достаточно. Можно быть неуклюжей, не блистать в науках, витать в облаках – но нельзя бросать тех, кто тебе дорог. Рун обозначила идею, Юко и Наги ее поддержали и затянули неулыбчивую Тору в свой круг – в итоге дружная компания медленно, но верно разрослась до четырех девчонок, за жизнью и приключениями которых мы будем теперь следить на экране. Воистину, весенний сезон богат историями о прекрасной повседневности!

© Hollow

Названия эпизодов - показать

Канал 01. Любовь. Апрельский день
Канал 02. Душ в дождливый день. Посреди дождя
Канал 03. Одноклассники. Все в сборе.
Канал 04. Килограмм. Следите за своим весом
Канал 05. Пляж. Далекий океан
Канал 06. В летнюю ночь. Школа летом.
Канал 07. Летний фестиваль. Конец августа.
Канал 08. Новый триместр. Необычные обстоятельства.
Канал 09. Подарок. Абстракционизм.
Канал 10. Шипучка. Болезнь.
Канал 11. День рождения. Дай мне.
Канал 12. Пришелец. Всегда.


Источник рипа: BD-Rip
Автор рипа\энкод: RACER RS
Тип видео: Без хардсаба
Контейнер: AVI
Видео: XviD 64 | 720 x 404 (16:9) | 23,976 fps | 1450 kbps ;

Аудио:
RUS: AC3 | 48000Hz | 256 Kbps | 2ch
JAP: AC3 | 48000Hz | 256 Kbps | 2ch
Субтитры: Ru - soft [ASS]и[SRT]

Озвучивание: Say & Lupin
Перевод: Someone & Stan WarHammer

MediaInfo: - показать

General
Complete name                            : I:\ARRU Rebuild\A Channel The Animation (TV) [BDRip] [HWP] Animereactor.ru\A_Channel_The_Animation_[01_of_12]_(XviD 720 x 404 AC3x2)_[Animereactor].avi
Format                                   : AVI
Format/Info                              : Audio Video Interleave
File size                                : 346 MiB
Duration                                 : 24mn 27s
Overall bit rate                         : 1 976 Kbps
Writing application                      : VirtualDubMod 1.5.10.2 (build 2540/release)
Writing library                          : VirtualDubMod build 2540/release

Video
ID                                       : 0
Format                                   : MPEG-4 Visual
Format profile                           : Advanced Simple@L5
Format settings, BVOP                    : 2
Format settings, QPel                    : No
Format settings, GMC                     : No warppoints
Format settings, Matrix                  : Default (H.263)
Codec ID                                 : XVID
Codec ID/Hint                            : XviD
Duration                                 : 24mn 27s
Bit rate                                 : 1 450 Kbps
Width                                    : 720 pixels
Height                                   : 404 pixels
Display aspect ratio                     : 16:9
Frame rate                               : 23.976 fps
Color space                              : YUV
Chroma subsampling                       : 4:2:0
Bit depth                                : 8 bits
Scan type                                : Progressive
Compression mode                         : Lossy
Bits/(Pixel*Frame)                       : 0.208
Stream size                              : 254 MiB (73%)
Writing library                          : XviD 64

Audio #1
ID                                       : 1
Format                                   : AC-3
Format/Info                              : Audio Coding 3
Mode extension                           : CM (complete main)
Codec ID                                 : 2000
Duration                                 : 24mn 27s
Bit rate mode                            : Constant
Bit rate                                 : 256 Kbps
Channel(s)                               : 2 channels
Channel positions                        : Front: L R
Sampling rate                            : 48.0 KHz
Bit depth                                : 16 bits
Compression mode                         : Lossy
Stream size                              : 44.8 MiB (13%)
Alignment                                : Split accross interleaves
Interleave, duration                     : 42 ms (1.00 video frame)
Interleave, preload duration             : 500 ms
Title                                    : Say & Lupin [Russian]

Audio #2
ID                                       : 2
Format                                   : AC-3
Format/Info                              : Audio Coding 3
Mode extension                           : CM (complete main)
Codec ID                                 : 2000
Duration                                 : 24mn 27s
Bit rate mode                            : Constant
Bit rate                                 : 256 Kbps
Channel(s)                               : 2 channels
Channel positions                        : Front: L R
Sampling rate                            : 48.0 KHz
Bit depth                                : 16 bits
Compression mode                         : Lossy
Stream size                              : 44.8 MiB (13%)
Alignment                                : Split accross interleaves
Interleave, duration                     : 42 ms (1.00 video frame)
Interleave, preload duration             : 500 ms
Title                                    : Original [Japanese]


Скриншоты: - показать




Дядя Шарик
Релиз от
источник
ARRU & REBUILD ARRU   &   RACER_RS
А вы ничего не забыли?
наверх

Последние поступления