ARRU





Deadman Wonderland
Страна чудес смертников (2011)[01-12 из 12][BDRip][HWP]   Bookmark


Скачать вход / регистрация
Тема на форуме Обсудить аниме (комментариев: 158)
Обсуждение раздачи (комментариев: 100)
ОписаниеDeadman Wonderland / Страна чудес смертников (2011)[01-12 из 12][BDRip][HWP]
Оригинальное название: Deadman Wonderland
Английское название: Deadman Wonderland
Русское название: Страна чудес смертников
Страна: Япония
Год выпуска: 2011
Жанр: приключения, фантастика, драма
Возрастное ограничение: 14+
Категория: TV
Количество эпизодов: 12 эпизодов
Продолжительность: 25 мин.
Режиссёр: Хацуми Койти
Сценарий: Муто Ясуюки
Автор оригинала: Катаока Дзинсэй
Студия: Manglobe Inc.


Описание:
 После чудовищного землетрясения, уничтожившего в начале XXI века почти весь Токио, японское общество неизлечимо больно. Иначе трудно объяснить, почему 10 лет спустя, в 2023 году, на руинах столицы возник огромный тематический парк, по совместительству – первая в стране частная тюрьма. По официальной версии, заключенные вместо того, чтобы обременять общество, занимаются общественно полезным трудом, да и сбор средств на возрождение Токио хорошо идет. Вот только публика, каждый день посещающая Страну Смертников, не видит (или не хочет видеть), что в «состязаниях» и «аттракционах» осужденные гибнут на самом деле. А для хозяев жизни, которые все понимают – извольте: гладиаторские бои на подземной арене, эксперименты на людях, все, как в приличных домах…
 При такой постановке бизнеса необходим постоянный приток свежего человеческого материала. Загремел на нары и обычный восьмиклассник Ганта Игараси, весь класс которого зверски уничтожил таинственный Красный Человек. Сирота Ганта остался в живых, без лишних проволочек был объявлен крайним и получил смертный приговор, а чтобы отсрочить его, в тюрьме надо крутиться, участвуя в местных жестоких играх. Впрочем, втянувшись, новичок обнаружил, что и в тюрьме можно жить, как на воле, были бы желание и способности. Постепенно герой понял, что кто-то очень хотел засадить его за решетку. А значит – надо найти тех, кто убил друзей, подставил его самого, и жестоко рассчитаться. Только кто же тут, в Стране Чудес, истинный кукловод?

© Hollow

Названия эпизодов: - показать

01. Смертник идет
02. Противоядие (леденец)
03. Сектор G
04. Ворон
05. Карнавал трупов
06. Колибри
07. Первородный грех (Несчастное яйцо)
08. Цепь свободы (Цепь Шрама)
09. Ускоритель окисления (Пожиратель червя)
10. Смотрители кладбища (Гробовщики)
11. Подпольный концерт отчаянья
12. Спасение (Благодарные мертвецы)


Источник рипа: BD-Rip [Yoursei-raws]
Автор рипа\энкод: Renmei Rei
Тип видео: Без хардсаба
Контейнер: AVI
Видео: XviD (Build 64) | 720 x 404 пикселей | 23,976 кадра/сек | ~1500 Кбит/сек ;

Аудио:
RUS: AC-3 | 48.0 КГц | стерео | 256 Кбит/сек;
JAP:  AC-3 | 48.0 КГц | стерео | 256 Кбит/сек

Субтитры: русские\отдельно [SRT, SSA]
Перевод: Dreamers Team
Озвучивание: Valkrist & Sagi

MediaInfo: - показать
Общее
Полное имя                               : R:\Video\HWP\[AnimeReactor.RU] Deadman Wonderland (TV)[01-12 of 12][BDRip][HWP]\Deadman Wonderland [01 of 12][BDRip][720x404 XviD AC3x2][Valkrist & Sagi & AnimeReactor.RU].avi
Формат                                   : AVI
Формат/Информация                        : Audio Video Interleave
Размер файла                             : 354 Мбайт
Продолжительность                        : 24 м.
Общий поток                              : 2026 Кбит/сек
Программа кодирования                    : VirtualDubModRus 1.5.10.2 (build 2542/release)
Библиотека кодирования                   : VirtualDubMod build 2542/release

Видео
Идентификатор                            : 0
Формат                                   : MPEG-4 Visual
Профиль формата                          : Advanced Simple@L5
Параметр BVOP формата                    : 2
Параметр QPel формата                    : Нет
Параметр GMC формата                     : Без точки перехода
Параметр матрицы формата                 : Default (H.263)
Идентификатор кодека                     : XVID
Идентификатор кодека/Подсказка           : XviD
Продолжительность                        : 24 м.
Битрейт                                  : 1500 Кбит/сек
Ширина                                   : 720 пикселей
Высота                                   : 404 пикселя
Соотношение сторон                       : 16:9
Частота кадров                           : 23,976 кадра/сек
Цветовое пространство                    : YUV
Субдискретизация насыщенности            : 4:2:0
Битовая глубина                          : 8 бит
Тип развёртки                            : Прогрессивная
Метод сжатия                             : С потерями
Бит/(Пиксели*Кадры)                      : 0.215
Размер потока                            : 262 Мбайт (74%)
Библиотека кодирования                   : XviD 64

Аудио #1
Идентификатор                            : 1
Формат                                   : AC-3
Формат/Информация                        : Audio Coding 3
Расширение режима                        : CM (complete main)
Параметр Endianness формата              : Big
Идентификатор кодека                     : 2000
Продолжительность                        : 24 м.
Вид битрейта                             : Постоянный
Битрейт                                  : 256 Кбит/сек
Каналы                                   : 2 канала
Расположение каналов                     : Front: L R
Частота                                  : 48,0 КГц
Битовая глубина                          : 16 бит
Метод сжатия                             : С потерями
Размер потока                            : 44,8 Мбайт (13%)
Выравнивание                             : Разделение по промежуткам
Продолжительность промежутка             : 42  мс. (1,00 видеокадр)
Время предзагрузки промежутка            : 500  мс.
Заголовок                                : Russian [Valkrist & Sagi]

Аудио #2
Идентификатор                            : 2
Формат                                   : AC-3
Формат/Информация                        : Audio Coding 3
Расширение режима                        : CM (complete main)
Параметр Endianness формата              : Big
Идентификатор кодека                     : 2000
Продолжительность                        : 24 м.
Вид битрейта                             : Постоянный
Битрейт                                  : 256 Кбит/сек
Каналы                                   : 2 канала
Расположение каналов                     : Front: L R
Частота                                  : 48,0 КГц
Битовая глубина                          : 16 бит
Метод сжатия                             : С потерями
Размер потока                            : 44,8 Мбайт (13%)
Выравнивание                             : Разделение по промежуткам
Продолжительность промежутка             : 42  мс. (1,00 видеокадр)
Время предзагрузки промежутка            : 500  мс.
Заголовок                                : Japanese [Original]


Скриншоты: - показать


Дядя Шарик
Релиз от
источник
ARRU & Moscow City Animegroup - MCA & RenmeiRei & REBUILD ARRU
А вы ничего не забыли?
наверх

Последние поступления