ARRU





Eureka Seven: Pocket Full of Rainbows
Эврика 7: Полный карман радуги (фильм)(2009)[BDRip][HWP]   Bookmark


Скачать вход / регистрация
Тема на форуме Обсудить фильм (комментариев: 136)
Обсуждение раздачи (комментариев: 3)
ОписаниеEureka Seven: Pocket Full of Rainbows / Эврика 7: Полный карман радуги (фильм)(2009)[BDRip][HWP]
Оригинальное название: 交響詩篇エウレカセブン ポケットが虹でいっぱい
Английское название: Eureka Seven: Pocket Full of Rainbows
Русское название:  Эврика 7: Полный карман радуги (фильм)
Страна: Япония
Год выпуска: 2009
Жанр: приключения, фантастика, меха, драма
Категория: Movie
Количество эпизодов: 1 эпизод
Продолжительность: 115 минут
Режиссёр: Кёда Томоки
Сценарий: Кёда Томоки
Студия:


Описание:
В апреле 2009 года н.э. таинственная гигантская форма жизни, названая Имаго, начала захват Земли. Уже 45 лет идёт война, но атаки Имаго невозможно остановить, поэтому человечество приготовилось к последнему, решающему удару. Правительство решило сжечь Имаго, пусть даже ценой наступления ядерной зимы, и эвакуировать избранных на корабль-ковчег. Но многие люди продолжают сражаться, а также искать способ справиться с ужасным противником и вернуть мир на планету. Возможно, ключ к победе – девочка Эврика, которую прятали в лабораториях Варшавы и которая была похищена. Чтобы отыскать её, Рентон, друг детства Эврики, покинул родной город и вместе с боевым роботом Нирваш присоединился к команде корабля «Гекко-Го» из Освободительной Армии Человечества...

Фильм «Эврика 7» заимствует из сериала не только большую часть героев, но также и множество кадров и сцен, переозвученных специально для этого ремейка. Сюжет существенно изменился, да и персонажи зачастую предстают в другом качестве и с новыми характерами. Но это по-прежнему прекрасная история необычной любви, способной спасти мир от гибели.

© Расселл Д. Джонс

Источник рипа: BD-Rip
Автор рипа\энкод: Renmei Rei
Тип видео: Без хардсаба
Контейнер: AVI
Видео: XviD (Build 65) | 720 x 404 пикселей | 23,976 кадра/сек | ~1500 Кбит/сек ;

Аудио:
RUS: AC-3 | 48.0 КГц | стерео | 256 Кбит/сек;
JAP:  AC-3 | 48.0 КГц | стерео | 256 Кбит/сек

Субтитры: русские\отдельно [SRT]
Перевод: Dreamtale, Онегин, Merkucio, ГоСт
Озвучивание: MifSnaiper & Mirra

MediaInfo: - показать
Общее
Полное имя                               : R:\Video\HWP\[AnimeReactor.RU] Eureka Seven Pocket Full of Rainbows (movie)[BDRip][HWP]\Eureka Seven Pocket Full of Rainbows [BDRip][720x404 XviD AC3x2][MifSnaiper & Mirra & Animereactor].avi
Формат                                   : AVI
Формат/Информация                        : Audio Video Interleave
Размер файла                             : 1,64 Гбайт
Продолжительность                        : 1 ч. 55 м.
Общий поток                              : 2026 Кбит/сек
Программа кодирования                    : VirtualDubModRus 1.5.10.2 (build 2542/release)
Библиотека кодирования                   : VirtualDubMod build 2542/release

Видео
Идентификатор                            : 0
Формат                                   : MPEG-4 Visual
Профиль формата                          : Advanced Simple@L5
Параметр BVOP формата                    : 2
Параметр QPel формата                    : Нет
Параметр GMC формата                     : Без точки перехода
Параметр матрицы формата                 : Default (H.263)
Идентификатор кодека                     : XVID
Идентификатор кодека/Подсказка           : XviD
Продолжительность                        : 1 ч. 55 м.
Битрейт                                  : 1500 Кбит/сек
Ширина                                   : 720 пикселей
Высота                                   : 404 пикселя
Соотношение сторон                       : 16:9
Частота кадров                           : 23,976 кадра/сек
Цветовое пространство                    : YUV
Субдискретизация насыщенности            : 4:2:0
Битовая глубина                          : 8 бит
Тип развёртки                            : Прогрессивная
Метод сжатия                             : С потерями
Бит/(Пиксели*Кадры)                      : 0.215
Размер потока                            : 1,21 Гбайт (74%)
Библиотека кодирования                   : XviD 65

Аудио #1
Идентификатор                            : 1
Формат                                   : AC-3
Формат/Информация                        : Audio Coding 3
Расширение режима                        : CM (complete main)
Параметр Endianness формата              : Big
Идентификатор кодека                     : 2000
Продолжительность                        : 1 ч. 55 м.
Вид битрейта                             : Постоянный
Битрейт                                  : 256 Кбит/сек
Каналы                                   : 2 канала
Расположение каналов                     : Front: L R
Частота                                  : 48,0 КГц
Битовая глубина                          : 16 бит
Метод сжатия                             : С потерями
Размер потока                            : 212 Мбайт (13%)
Выравнивание                             : Разделение по промежуткам
Продолжительность промежутка             : 42  мс. (1,00 видеокадр)
Время предзагрузки промежутка            : 500  мс.
Заголовок                                : Russian [MifSnaiper & Mirra]

Аудио #2
Идентификатор                            : 2
Формат                                   : AC-3
Формат/Информация                        : Audio Coding 3
Расширение режима                        : CM (complete main)
Параметр Endianness формата              : Big
Идентификатор кодека                     : 2000
Продолжительность                        : 1 ч. 55 м.
Вид битрейта                             : Постоянный
Битрейт                                  : 256 Кбит/сек
Каналы                                   : 2 канала
Расположение каналов                     : Front: L R
Частота                                  : 48,0 КГц
Битовая глубина                          : 16 бит
Метод сжатия                             : С потерями
Размер потока                            : 212 Мбайт (13%)
Выравнивание                             : Разделение по промежуткам
Продолжительность промежутка             : 42  мс. (1,00 видеокадр)
Время предзагрузки промежутка            : 500  мс.
Заголовок                                : Japanese [Original]


Скриншоты: - показать


Дядя Шарик
Релиз от
источник
ARRU & MifSnaiper & SeM & RenmeiRei & REBUILD ARRU   &   Mirra
А вы ничего не забыли?
наверх

Последние поступления