ARRU





Gakuen Mokushiroku: High School of the Dead
Школа мертвецов (2010)[01-12 из 12][BDRip][HWP]   Bookmark


Скачать вход / регистрация
Тема на форуме Обсудить аниме (комментариев: 84)
Обсуждение раздачи (комментариев: 29)
ОписаниеGakuen Mokushiroku: High School of the Dead / Школа мертвецов (2010)[01-12 из 12][BDRip][HWP]
Оригинальное название: Gakuen Mokushiroku: High School of the Dead
Русское название: Школа мертвецов
Страна: Япония
Год выпуска / период трансляции: c 05.07.2010
Жанр: приключения, ужасы, этти
Категория: TV
Количество эпизодов: 12
Продолжительность: 25 мин.
Режиссёр: Араки Тэцуро
Автор оригинала: Сато Дайсукэ
Студия:


Описание:
  Страшная болезнь, превращающая людей в зомби, вырвалась на свободу, и мир рухнул в одночасье. Беда неслышно подкралась и к частной академии Фудзими, лишь немногие школьники и учителя смогли распознать ее и бежать от толпы живых мертвецов. Дороги выживших разошлись. В центре сюжета – судьба тесной группы, невольный лидер которой, 17-летний Такаси Комуро, готов на все, чтобы спасти подругу детства Рэй Миямото. По пути на волю к ним присоединяются другие ученики – президент клуба кэндо Саэко Бусудзима, фанат оружия Кота Хирано и самозваный гений Сая Такаги. Пополнив ряды еще и школьной медсестрой Сидзукой Марикавой, беглецы вырываются в город – а там все только хуже.
  Конец света быстро срывает маски, показывая, кто держится друзей, а кто готов толкнуть падающего; кто хочет просто выжить, а кто желает еще и половить рыбку в мутных водах Апокалипсиса. Такаси и компания вскоре убеждаются, что временами опаснее всего не зомби, а такие же «товарищи по несчастью». Героям придется пройти ускоренный курс суровой науки выживания, чтобы найти родных и близких и не потерять надежду. Надо жить дальше, а надежда будет всегда!

© Hollow

Названия эпизодов:
01. Spring of the Dead
02. Escape from the Dead
03. Democracy under the Dead
04. Running in the Dead
05. Streets of the Dead
06. In the Dead of the Night
07. Dead Night and the Dead Ruck
08. The Dead Way Home
09. The Sword and Dead
10. The Dead`s House Rules
11. Dead Storm Rising
12. All Dead`s Attack



Источник рипа: BD-Rip [Yoursei-raws]
Автор рипа\энкод: Renmei Rei
Тип видео: Без хардсаба
Контейнер: AVI
Видео: XviD (Build 64) | 720 x 404 пикселей | 23,976 кадра/сек | ~1500 Кбит/сек ;

Аудио:
RUS1: AC-3 | 48.0 КГц | стерео | 256 Кбит/сек • одноголосый - Persona99
RUS2: AC-3 | 48.0 КГц | стерео | 256 Кбит/сек • одноголосый - Shachiburi
JAP:  AC-3 | 48.0 КГц | стерео | 256 Кбит/сек  • оригинал

Субтитры: русские\отдельно [SSA, SRT][Antravoco]
Перевод: Antravoco

MediaInfo: - показать
Общее
Полное имя                               : R:\Video\HWP\Gakuen Mokushiroku High School of the Dead (TV)[01-12 of 12][BDrip][HWP][AnimeReactor.RU]\High School of the Dead [01 of 12][BDrip][ 720x404 XviD AC3x2][AnimeReactor.RU].avi
Формат                                   : AVI
Формат/Информация                        : Audio Video Interleave
Размер файла                             : 388 Мбайт
Продолжительность                        : 23 м.
Общий поток                              : 2287 Кбит/сек
Программа кодирования                    : VirtualDubModRus 1.5.10.2 (build 2542/release)
Библиотека кодирования                   : VirtualDubMod build 2542/release

Видео
Идентификатор                            : 0
Формат                                   : MPEG-4 Visual
Профиль формата                          : Advanced Simple@L5
Параметр BVOP формата                    : 2
Параметр QPel формата                    : Нет
Параметр GMC формата                     : Без точки перехода
Параметр матрицы формата                 : Default (H.263)
Идентификатор кодека                     : XVID
Идентификатор кодека/Подсказка           : XviD
Продолжительность                        : 23 м.
Битрейт                                  : 1500 Кбит/сек
Ширина                                   : 720 пикселей
Высота                                   : 404 пикселя
Соотношение сторон                       : 16:9
Частота кадров                           : 23,976 кадра/сек
Цветовое пространство                    : YUV
Субдискретизация насыщенности            : 4:2:0
Битовая глубина                          : 8 бит
Тип развёртки                            : Прогрессивная
Метод сжатия                             : С потерями
Бит/(Пиксели*Кадры)                      : 0.215
Размер потока                            : 254 Мбайт (66%)
Библиотека кодирования                   : XviD 64

Аудио #1
Идентификатор                            : 1
Формат                                   : AC-3
Формат/Информация                        : Audio Coding 3
Расширение режима                        : CM (complete main)
Параметр Endianness формата              : Big
Идентификатор кодека                     : 2000
Продолжительность                        : 23 м.
Вид битрейта                             : Постоянный
Битрейт                                  : 256 Кбит/сек
Каналы                                   : 2 канала
Расположение каналов                     : Front: L R
Частота                                  : 48,0 КГц
Битовая глубина                          : 16 бит
Метод сжатия                             : С потерями
Размер потока                            : 43,4 Мбайт (11%)
Выравнивание                             : Разделение по промежуткам
Продолжительность промежутка             : 42  мс. (1,00 видеокадр)
Время предзагрузки промежутка            : 500  мс.
Заголовок                                : Russian [Persona99]

Аудио #2
Идентификатор                            : 2
Формат                                   : AC-3
Формат/Информация                        : Audio Coding 3
Расширение режима                        : CM (complete main)
Параметр Endianness формата              : Big
Идентификатор кодека                     : 2000
Продолжительность                        : 23 м.
Вид битрейта                             : Постоянный
Битрейт                                  : 256 Кбит/сек
Каналы                                   : 2 канала
Расположение каналов                     : Front: L R
Частота                                  : 48,0 КГц
Битовая глубина                          : 16 бит
Метод сжатия                             : С потерями
Размер потока                            : 43,4 Мбайт (11%)
Выравнивание                             : Разделение по промежуткам
Продолжительность промежутка             : 42  мс. (1,00 видеокадр)
Время предзагрузки промежутка            : 500  мс.
Заголовок                                : Russian [Shachiburi]

Аудио #3
Идентификатор                            : 3
Формат                                   : AC-3
Формат/Информация                        : Audio Coding 3
Расширение режима                        : CM (complete main)
Параметр Endianness формата              : Big
Идентификатор кодека                     : 2000
Продолжительность                        : 23 м.
Вид битрейта                             : Постоянный
Битрейт                                  : 256 Кбит/сек
Каналы                                   : 2 канала
Расположение каналов                     : Front: L R
Частота                                  : 48,0 КГц
Битовая глубина                          : 16 бит
Метод сжатия                             : С потерями
Размер потока                            : 43,4 Мбайт (11%)
Выравнивание                             : Разделение по промежуткам
Продолжительность промежутка             : 42  мс. (1,00 видеокадр)
Время предзагрузки промежутка            : 500  мс.
Заголовок                                : Japanese [Original]


Скриншоты: - показать


Дядя Шарик
Релиз от
источник
ARRU & Get Smart & RenmeiRei & REBUILD ARRU
наверх

Последние поступления