ARRU





Готика
Gosick (TV) (2011) [01-24 из 24] [BD-Rip][HWP]   Bookmark


Скачать вход / регистрация
Тема на форуме Обсудить аниме (комментариев: 184)
Обсуждение раздачи (комментариев: 101)
ОписаниеГотика / Gosick (TV) (2011) [01-24 из 24] [BD-Rip][HWP]
Оригинальное название: ゴシック
Английское название: Gosick
Русское название: Готика

Страна: Япония
Жанр: детектив
Год выхода: 2011
Колличество серий: 24
Продолжительность: 25 мин
Студия: Bones
Автор оригинала: Сакураба Кадзуки
Режиссёр: Намба Хитоси

Описание:
Действие происходит в 1924 году в маленькой в маленькой европейской стране Совиль. История сосредоточенна вокруг Казуи Куджо - третьем сыне японского Императорского солдата, который является студентом по обмену Академии Святой Маргариты, где последний писк моды - городские легенды и страшилки. Там главный герой встречает прекрасную таинственную девушку Викторику, которая практически не посещает занятия, а всё время проводит в библиотеке или разгадывает тайны, которые даже детективы не могут решить. Серия сосредоточенна на этих двух героях, которые оказываются вовлечены в различного рода тайны, пытаются их разрешить и в тоже время создают важные связи с новыми людьми.

© Crazy_yozhik, World Art

Названия эпизодов - показать

01. The Dark Reaper Finds the Golden Fairy
02. The Souls of the Dead Raise a Shipwreck
03. The Hares Make a Promise Under the Morning Sun
04. The Golden Thread Cuts Through a Passing Moment
05. There`s a Mysterious Ghost in the Abandoned Storehouse
06. The Gray Wolf Summons a Compatriot
07. A Divine Revelation is Given at the Summer Solstice Festival
08. Howling Echoes From the Kingdom of the Past
09. Blue Roses Bloom in the Cannibal Department Store
10. Girl With a Cold Dreams of Her Stubborn Friend
11. The Drill Speaks Eloquently of Love
12. Listening to the Voice of the Cicadas on a Summer Afternoon
13. He Who Is His Own Lawyer Has a Fool For a Client
14. A Malicious Frill Denounces a Farting Newt
15. Two Monsters Know Each Others` Hearts
16. The Toppled Maria Has the Head of a Fly
17. That Box Sleeps in a Spiral Labyrinth
18. The Jet-Black Rain Carries Several Lies
19. The Rose-Colored Life is Covered in New Snow
20. Led by the Phantom of the Phantom
21. The Bells of Christmas Eve Toll at the Heels of Time[object Selection]
22. A Christmas Carol Decorates the Windowsill`s Happiness
23. Announcing Checkmate at Dyed-Gray Chess
24. Looking at Infinity Over the Reaper`s Shoulder


Источник рипа: BD-Rip
Автор рипа\энкод: RACER RS
Тип видео: Без хардсаба
Контейнер: AVI
Видео: XviD 64 | 720 x 404 (16:9) | 23,976 fps | 1450 kbps ;

Аудио:
RUS: AC3 | 48000Hz | 192 Kbps | 2ch
JAP: AC3 | 48000Hz | 256 Kbps | 2ch
Субтитры: Ru - soft [ASS]и[SRT]

Озвучивание: Persona99
Перевод: junnes, Оформление: Inhesion, Редактор: Amarillis

MediaInfo: - показать

General
Complete name                            : I:\ARRU Rebuild\Gosick (TV)[01-24 of 24][BDRip][HWP] Animereactor.ru\Gosick (TV)[09 of 24] (XVID 720x404 AC3x2) [Persona99 & Animereactor.ru].avi
Format                                   : AVI
Format/Info                              : Audio Video Interleave
File size                                : 333 MiB
Duration                                 : 24mn 21s
Overall bit rate                         : 1 912 Kbps
Writing application                      : VirtualDubMod 1.5.10.2 (build 2540/release)
Writing library                          : VirtualDubMod build 2540/release

Video
ID                                       : 0
Format                                   : MPEG-4 Visual
Format profile                           : Advanced Simple@L5
Format settings, BVOP                    : 2
Format settings, QPel                    : No
Format settings, GMC                     : No warppoints
Format settings, Matrix                  : Default (H.263)
Codec ID                                 : XVID
Codec ID/Hint                            : XviD
Duration                                 : 24mn 21s
Bit rate                                 : 1 450 Kbps
Width                                    : 720 pixels
Height                                   : 404 pixels
Display aspect ratio                     : 16:9
Frame rate                               : 23.976 fps
Color space                              : YUV
Chroma subsampling                       : 4:2:0
Bit depth                                : 8 bits
Scan type                                : Progressive
Compression mode                         : Lossy
Bits/(Pixel*Frame)                       : 0.208
Stream size                              : 253 MiB (76%)
Writing library                          : XviD 64

Audio #1
ID                                       : 1
Format                                   : AC-3
Format/Info                              : Audio Coding 3
Mode extension                           : CM (complete main)
Codec ID                                 : 2000
Duration                                 : 24mn 21s
Bit rate mode                            : Constant
Bit rate                                 : 192 Kbps
Channel(s)                               : 2 channels
Channel positions                        : Front: L R
Sampling rate                            : 48.0 KHz
Bit depth                                : 16 bits
Compression mode                         : Lossy
Stream size                              : 33.4 MiB (10%)
Alignment                                : Split accross interleaves
Interleave, duration                     : 42 ms (1.00 video frame)
Interleave, preload duration             : 500 ms
Title                                    : Persona99 [Russian]

Audio #2
ID                                       : 2
Format                                   : AC-3
Format/Info                              : Audio Coding 3
Mode extension                           : CM (complete main)
Codec ID                                 : 2000
Duration                                 : 24mn 21s
Bit rate mode                            : Constant
Bit rate                                 : 256 Kbps
Channel(s)                               : 2 channels
Channel positions                        : Front: L R
Sampling rate                            : 48.0 KHz
Bit depth                                : 16 bits
Compression mode                         : Lossy
Stream size                              : 44.6 MiB (13%)
Alignment                                : Split accross interleaves
Interleave, duration                     : 42 ms (1.00 video frame)
Interleave, preload duration             : 500 ms
Title                                    : Original [Japanese]




Скриншоты: - показать





Дядя Шарик
Релиз от
источник
ARRU & Get Smart & REBUILD ARRU   &   RACER_RS
А вы ничего не забыли?
наверх

Последние поступления