ARRU





Gekijouban Kara no Kyoukai: Dai Yon Shou - Garan no Dou
Граница пустоты: Сад грешников фильмы 1-7 из 7 + OVA [BD-Rip][HWP]   Bookmark


Скачать вход / регистрация
Тема на форуме Обсудить фильм (комментариев: 668)
Обсуждение раздачи (комментариев: 254)
ОписаниеGekijouban Kara no Kyoukai: Dai Yon Shou - Garan no Dou / Граница пустоты: Сад грешников фильмы 1-7 из 7 + OVA [BD-Rip][HWP]
Оригинальное название: Gekijouban Kara no Kyoukai: Dai Yon Shou - Garan no Dou
Английское название: Boundary of Emptiness: The Hollow Shrine
Русское название: Граница пустоты: Сад грешников

Страна: Япония
Год выпуска / период трансляции: 01.12.2007
Жанр: приключения, фэнтези

Категория: короткометражный фильм
Количество эпизодов: 7 + OVA
Продолжительность:
Фильм первый 48 мин.
Фильм второй 58 мин.
Фильм третий 56 мин.
Фильм четвертый 46 мин.
Фильм пятый 112 мин.
Фильм шестой 60 мин.
Фильм седьмой 119 мин.
OVA 35 мин

Студия:

Режиссёр: Аоки Эй
Автор оригинала:  Насу Киноко

Описание:
Шики Рёги. Девушка, обладающая таинственными "глазами смерти", силой, дающей своему владельцу буквально видеть "линии" жизни всего живого, и уничтожать любой объект, обрезая их. Она лишь недавно проснулась из двухлетней комы, в которую впала связи с автомобильной аварией. К чему это приведет смотрите сами...

Справка:
Эта серия родилась из обширного (900 стр.) додзинси-романа Киноко Насу. В принципе, роман был рыхлым и слабым, поэтому позже автор переписал его как визуальную «Легенду полнолуния о Лунной принцессе», с которой началась история Type-Moon. После раскрутки фирмы с серией игр Fate, вспомнили и о «Границе», которую объявили альтернативным миром вселенной Type-Moon и экранизировали. Каждый фильм септалогии имеет подзаголовок, взятый из романа-первоисточника. © World-Art

Названия серии фильмов:

Dai Ichi Shou - Fukan Fuukei
Dai Nishou - Satsujin Kousatsu (Zen)
Dai San Shou - Tsuukaku Zanryuu
Dai Yon Shou - Garan no Dou
Dai Go Shou - Mujun Rasen
Dai Roku Shou - Boukyaku Rokuon
Dai Nana Shou - Satsujin Kousatsu (Go)

Gekijouban Kara no Kyoukai Shuushou: Kara no Kyoukai
(OVA)




Фильм 1 - Вид свысока / Overlooking View / Fukan Fuukei - показать


Источник рипа: BD-Rip [ANE]
Контейнер: avi
Видео: XviD (Build 63) | 23.98fps | ~ 1500 kbps | 720x404 pixels; (by Renmei Rei)
MediaInfo - показать
General
Complete name                    : E:\HWP\Kara no Kyoukai [1-7 of 7 + OVA]HWP\Kara no Kyoukai - The Garden of Sinners 1\Gekijouban_Kara_no_Kyoukai_Dai_Ichi_Shou_-_Fukan_Fuukei_[ru_jp]_[MCA_&_AnimeReactor_RU].avi
Format                           : AVI
Format/Info                      : Audio Video Interleave
File size                        : 872 MiB
Duration                         : 50mn 8s
Overall bit rate                 : 2 430 Kbps
Writing application              : VirtualDubModRus 1.5.10.2 (build 2542/release)
Writing library                  : VirtualDubMod build 2542/release


ID                               : 0
Format                           : MPEG-4 Visual
Format profile                   : Advanced Simple@L5
Format settings, BVOP            : 2
Format settings, QPel            : No
Format settings, GMC             : No warppoints
Format settings, Matrix          : Default (H.263)
Codec ID                         : XVID
Codec ID/Hint                    : XviD
Duration                         : 50mn 8s
Bit rate                         : 1 457 Kbps
Width                            : 720 pixels
Height                           : 404 pixels
Display aspect ratio             : 16:9
Frame rate                       : 23.976 fps
Color space                      : YUV
Chroma subsampling               : 4:2:0
Bit depth                        : 8 bits
Scan type                        : Progressive
Compression mode                 : Lossy
Bits/(Pixel*Frame)               : 0.209
Stream size                      : 523 MiB (60%)
Writing library                  : XviD 63


Audio #1
ID                               : 1
Format                           : AC-3
Format/Info                      : Audio Coding 3
Mode extension                   : CM (complete main)
Codec ID                         : 2000
Duration                         : 50mn 3s
Bit rate mode                    : Constant
Bit rate                         : 320 Kbps
Channel(s)                       : 2 channels
Channel positions                : Front: L R
Sampling rate                    : 48.0 KHz
Bit depth                        : 16 bits
Compression mode                 : Lossy
Stream size                      : 115 MiB (13%)
Alignment                        : Split accross interleaves
Interleave, duration             : 42 ms (1.00 video frame)
Interleave, preload duration     : 500 ms
Title                            : Russian [MCA]

Audio #2
ID                               : 2
Format                           : AC-3
Format/Info                      : Audio Coding 3
Mode extension                   : CM (complete main)
Codec ID                         : 2000
Duration                         : 50mn 8s
Bit rate mode                    : Constant
Bit rate                         : 640 Kbps
Channel(s)                       : 6 channels
Channel positions                : Front: L C R, Side: L R, LFE
Sampling rate                    : 48.0 KHz
Bit depth                        : 16 bits
Compression mode                 : Lossy
Stream size                      : 230 MiB (26%)
Alignment                        : Split accross interleaves
Interleave, duration             : 42 ms (1.00 video frame)
Interleave, preload duration     : 500 ms
Title                            : Original

Аудио:
1. RU - MVO | AC-3 | stereo | 48 KHz | 320 kbps;
2. JP - AC-3 | 48000Hz | 6ch |  640 Kbps

Субтитры: есть
Перевод: Xyanide & Stan WarHammer


Скриншоты: - показать

Фильм 2 - Обдумывание убийства (Часть I) / A Study in Murder (Part 1) / Satsujin Kousatsu (Zen) - показать


Источник рипа: BD-Rip [ANE]
Контейнер: avi
Видео: XviD (Build 63) | 23.98fps | ~ 1600 kbps | 720x404 pixels; (by Renmei Rei)
MediaInfo - показать
General
Complete name                    : E:\HWP\Kara no Kyoukai [1-7 of 7 + OVA]HWP\Kara no Kyoukai - The Garden of Sinners 2\Gekijouban_Kara_no_Kyoukai_Dai_Ni_Shou_-_Satsujin_Kousatsu_(Zen)_[ru_jp]_[MCA_&_AnimeReactor_RU].avi
Format                           : AVI
Format/Info                      : Audio Video Interleave
File size                        : 1.02 GiB
Duration                         : 1h 0mn
Overall bit rate                 : 2 435 Kbps
Writing application              : VirtualDubModRus 1.5.10.2 (build 2542/release)
Writing library                  : VirtualDubMod build 2542/release


ID                               : 0
Format                           : MPEG-4 Visual
Format profile                   : Advanced Simple@L5
Format settings, BVOP            : 2
Format settings, QPel            : No
Format settings, GMC             : No warppoints
Format settings, Matrix          : Default (H.263)
Codec ID                         : XVID
Codec ID/Hint                    : XviD
Duration                         : 1h 0mn
Bit rate                         : 1 589 Kbps
Width                            : 720 pixels
Height                           : 404 pixels
Display aspect ratio             : 16:9
Frame rate                       : 23.976 fps
Color space                      : YUV
Chroma subsampling               : 4:2:0
Bit depth                        : 8 bits
Scan type                        : Progressive
Compression mode                 : Lossy
Bits/(Pixel*Frame)               : 0.228
Stream size                      : 682 MiB (65%)
Writing library                  : XviD 63


Audio #1
ID                               : 1
Format                           : AC-3
Format/Info                      : Audio Coding 3
Mode extension                   : CM (complete main)
Codec ID                         : 2000
Duration                         : 1h 0mn
Bit rate mode                    : Constant
Bit rate                         : 192 Kbps
Channel(s)                       : 2 channels
Channel positions                : Front: L R
Sampling rate                    : 48.0 KHz
Bit depth                        : 16 bits
Compression mode                 : Lossy
Stream size                      : 82.4 MiB (8%)
Alignment                        : Split accross interleaves
Interleave, duration             : 42 ms (1.00 video frame)
Interleave, preload duration     : 500 ms
Title                            : Russian [MCA]

Audio #2
ID                               : 2
Format                           : AC-3
Format/Info                      : Audio Coding 3
Mode extension                   : CM (complete main)
Codec ID                         : 2000
Duration                         : 1h 0mn
Bit rate mode                    : Constant
Bit rate                         : 640 Kbps
Channel(s)                       : 6 channels
Channel positions                : Front: L C R, Side: L R, LFE
Sampling rate                    : 48.0 KHz
Bit depth                        : 16 bits
Compression mode                 : Lossy
Stream size                      : 275 MiB (26%)
Alignment                        : Split accross interleaves
Interleave, duration             : 42 ms (1.00 video frame)
Interleave, preload duration     : 500 ms


Аудио:
1. RU - MVO | AC-3 | stereo | 48 KHz | 192 kbps;
2. JP - AC-3 | 48000Hz | 6ch |  640 Kbps

Субтитры: есть
Перевод: Xyanide & Stan WarHammer

Скриншоты: - показать



Фильм 3 - Оставшееся чувство боли / Remaining Sense of Pain / Tsuukaku Zanryuu - показать


Источник рипа: BD-Rip [ANE]
Контейнер: avi
Видео: XviD (Build 63) | 23.98fps | ~ 1700 kbps | 720x404 pixels; (by Renmei Rei)
MediaInfo - показать
General
Complete name                    : E:\HWP\Kara no Kyoukai [1-7 of 7 + OVA]HWP\Kara no Kyoukai - The Garden of Sinners 3\Gekijouban_Kara_no_Kyoukai_Dai_San_Shou_-_Tsuukaku_Zanryuu_[ru_jp]_[MCA_&_AnimeReactor_RU].avi
Format                           : AVI
Format/Info                      : Audio Video Interleave
File size                        : 1.01 GiB
Duration                         : 57mn 24s
Overall bit rate                 : 2 524 Kbps
Writing application              : VirtualDubModRus 1.5.10.2 (build 2542/release)
Writing library                  : VirtualDubMod build 2542/release


ID                               : 0
Format                           : MPEG-4 Visual
Format profile                   : Advanced Simple@L5
Format settings, BVOP            : 2
Format settings, QPel            : No
Format settings, GMC             : No warppoints
Format settings, Matrix          : Default (H.263)
Codec ID                         : XVID
Codec ID/Hint                    : XviD
Duration                         : 57mn 24s
Bit rate                         : 1 677 Kbps
Width                            : 720 pixels
Height                           : 408 pixels
Display aspect ratio             : 16:9
Frame rate                       : 23.976 fps
Color space                      : YUV
Chroma subsampling               : 4:2:0
Bit depth                        : 8 bits
Scan type                        : Progressive
Compression mode                 : Lossy
Bits/(Pixel*Frame)               : 0.238
Stream size                      : 689 MiB (66%)
Writing library                  : XviD 63


Audio #1
ID                               : 1
Format                           : AC-3
Format/Info                      : Audio Coding 3
Mode extension                   : CM (complete main)
Codec ID                         : 2000
Duration                         : 57mn 24s
Bit rate mode                    : Constant
Bit rate                         : 192 Kbps
Channel(s)                       : 2 channels
Channel positions                : Front: L R
Sampling rate                    : 48.0 KHz
Bit depth                        : 16 bits
Compression mode                 : Lossy
Stream size                      : 78.8 MiB (8%)
Alignment                        : Split accross interleaves
Interleave, duration             : 42 ms (1.00 video frame)
Interleave, preload duration     : 500 ms
Title                            : Russian [MCA]

Audio #2
ID                               : 2
Format                           : AC-3
Format/Info                      : Audio Coding 3
Mode extension                   : CM (complete main)
Codec ID                         : 2000
Duration                         : 57mn 24s
Bit rate mode                    : Constant
Bit rate                         : 640 Kbps
Channel(s)                       : 6 channels
Channel positions                : Front: L C R, Side: L R, LFE
Sampling rate                    : 48.0 KHz
Bit depth                        : 16 bits
Compression mode                 : Lossy
Stream size                      : 263 MiB (25%)
Alignment                        : Split accross interleaves
Interleave, duration             : 42 ms (1.00 video frame)
Interleave, preload duration     : 500 ms
Title                            : Original


Аудио:
1. RU - MVO | AC-3 | stereo | 48 KHz | 192 kbps;
2. JP - AC-3 | 48000Hz | 6ch |  640 Kbps

Субтитры: есть
Перевод: Xyanide & Stan WarHammer

Скриншоты: - показать






Фильм 4 - Храм Пустоты / The Hollow Shrine / Garan no Dou - показать


Источник рипа: BD-Rip [ANE]
Контейнер: avi
Видео: XviD (Build 63) | 23.98fps | ~ 1600 kbps | 720x404 pixels; (by Renmei Rei)
MediaInfo - показать
General
Complete name                    : E:\HWP\Kara no Kyoukai [1-7 of 7 + OVA + specials][BD-Rip]HWP\Kara no Kyoukai - The Garden of Sinners 4\Gekijouba_Kara_no_Kyoukai_Dai_Yon_Shou_-_Garan_no_Dou_[ru_jp]_[MCA_&_AnimeReactor_RU].avi
Format                           : AVI
Format/Info                      : Audio Video Interleave
File size                        : 812 MiB
Duration                         : 45mn 21s
Overall bit rate                 : 2 504 Kbps
Writing application              : VirtualDubModRus 1.5.10.2 (build 2542/release)
Writing library                  : VirtualDubMod build 2542/release


ID                               : 0
Format                           : MPEG-4 Visual
Format profile                   : Advanced Simple@L5
Format settings, BVOP            : 2
Format settings, QPel            : No
Format settings, GMC             : No warppoints
Format settings, Matrix          : Default (H.263)
Codec ID                         : XVID
Codec ID/Hint                    : XviD
Duration                         : 45mn 21s
Bit rate                         : 1 594 Kbps
Width                            : 720 pixels
Height                           : 404 pixels
Display aspect ratio             : 16:9
Frame rate                       : 23.976 fps
Color space                      : YUV
Chroma subsampling               : 4:2:0
Bit depth                        : 8 bits
Scan type                        : Progressive
Compression mode                 : Lossy
Bits/(Pixel*Frame)               : 0.228
Stream size                      : 517 MiB (64%)
Writing library                  : XviD 63


Audio #1
ID                               : 1
Format                           : AC-3
Format/Info                      : Audio Coding 3
Mode extension                   : CM (complete main)
Codec ID                         : 2000
Duration                         : 45mn 21s
Bit rate mode                    : Constant
Bit rate                         : 256 Kbps
Channel(s)                       : 2 channels
Channel positions                : Front: L R
Sampling rate                    : 48.0 KHz
Bit depth                        : 16 bits
Compression mode                 : Lossy
Stream size                      : 83.1 MiB (10%)
Alignment                        : Split accross interleaves
Interleave, duration             : 42 ms (1.00 video frame)
Interleave, preload duration     : 500 ms
Title                            : Russian [MCA]

Audio #2
ID                               : 2
Format                           : AC-3
Format/Info                      : Audio Coding 3
Mode extension                   : CM (complete main)
Codec ID                         : 2000
Duration                         : 45mn 21s
Bit rate mode                    : Constant
Bit rate                         : 640 Kbps
Channel(s)                       : 6 channels
Channel positions                : Front: L C R, Side: L R, LFE
Sampling rate                    : 48.0 KHz
Bit depth                        : 16 bits
Compression mode                 : Lossy
Stream size                      : 208 MiB (26%)
Alignment                        : Split accross interleaves
Interleave, duration             : 42 ms (1.00 video frame)
Interleave, preload duration     : 500 ms
Title                            : Japanese [Original 6 ch]


Аудио:
1. RU - MVO | AC-3 | stereo | 48 KHz | 256 kbps;
2. JP - AC-3 | 48000Hz | 6ch |  640 Kbps

Субтитры: есть
Перевод: Xyanide & Stan WarHammer

Скриншоты: - показать






Фильм 5 - Спираль парадокса / Paradox Spiral / Mujun Rasen - показать


Источник рипа: BD-Rip [ANE]
Контейнер: avi
Видео: XviD (Build 63) | 23.98fps | ~ 2300 kbps [MPEG Matrix]| 720x404 pixels; (by Renmei Rei)
MediaInfo - показать
General
Complete name                    : E:\HWP\Kara no Kyoukai [1-7 of 7 + OVA + specials][BD-Rip]HWP\Kara no Kyoukai - The Garden of Sinners 5\Gekijouban_Kara_no_Kyoukai_Dai_Go_Shou_-_Mujun_Rasen_[ru_jp]_[MCA_&_AnimeReactor_RU].avi
Format                           : AVI
Format/Info                      : Audio Video Interleave
Format profile                   : OpenDML
File size                        : 2.60 GiB
Duration                         : 1h 53mn
Overall bit rate                 : 3 271 Kbps
Writing application              : VirtualDubModRus 1.5.10.2 (build 2542/release)
Writing library                  : VirtualDubMod build 2542/release


ID                               : 0
Format                           : MPEG-4 Visual
Format profile                   : Advanced Simple@L5
Format settings, BVOP            : 2
Format settings, QPel            : No
Format settings, GMC             : No warppoints
Format settings, Matrix          : Default (MPEG)
Codec ID                         : XVID
Codec ID/Hint                    : XviD
Duration                         : 1h 53mn
Bit rate                         : 2 294 Kbps
Width                            : 720 pixels
Height                           : 404 pixels
Display aspect ratio             : 16:9
Frame rate                       : 23.976 fps
Color space                      : YUV
Chroma subsampling               : 4:2:0
Bit depth                        : 8 bits
Scan type                        : Progressive
Compression mode                 : Lossy
Bits/(Pixel*Frame)               : 0.329
Stream size                      : 1.83 GiB (70%)
Writing library                  : XviD 63


Audio #1
ID                               : 1
Format                           : AC-3
Format/Info                      : Audio Coding 3
Mode extension                   : CM (complete main)
Codec ID                         : 2000
Duration                         : 1h 53mn
Bit rate mode                    : Constant
Bit rate                         : 320 Kbps
Channel(s)                       : 2 channels
Channel positions                : Front: L R
Sampling rate                    : 48.0 KHz
Bit depth                        : 16 bits
Compression mode                 : Lossy
Stream size                      : 261 MiB (10%)
Alignment                        : Split accross interleaves
Interleave, duration             : 42 ms (1.00 video frame)
Interleave, preload duration     : 500 ms
Title                            : Russian [MCA]

Audio #2
ID                               : 2
Format                           : AC-3
Format/Info                      : Audio Coding 3
Mode extension                   : CM (complete main)
Codec ID                         : 2000
Duration                         : 1h 53mn
Bit rate mode                    : Constant
Bit rate                         : 640 Kbps
Channel(s)                       : 6 channels
Channel positions                : Front: L C R, Side: L R, LFE
Sampling rate                    : 48.0 KHz
Bit depth                        : 16 bits
Compression mode                 : Lossy
Stream size                      : 521 MiB (20%)
Alignment                        : Split accross interleaves
Interleave, duration             : 42 ms (1.00 video frame)
Interleave, preload duration     : 500 ms


Аудио:
1. RU - MVO | AC-3 | stereo | 48 KHz | 320 kbps;
2. JP - AC-3 | 48000Hz | 6ch |  640 Kbps

Субтитры: есть
Перевод: Xyanide & Stan WarHammer

Скриншоты: - показать








Фильм 6 - Записи забвения / Oblivion Recorder / Boukyaku Rokuon - показать


Источник рипа: BD-Rip [ANE]
Контейнер: avi
Видео: XviD (Build 63) | 23.98fps | ~ 1450 kbps | 720x404 pixels; (by Renmei Rei)
MediaInfo - показать
General
Complete name                    : E:\HWP\Kara no Kyoukai [1-7 of 7 + OVA]HWP\Kara no Kyoukai - The Garden of Sinners 6\Gekijouban_Kara_no_Kyoukai_Dai_Roku_Shou_-_Boukyaku_Rokuon_[ru_jp]_[MCA_&_AnimeReactor_RU].avi
Format                           : AVI
Format/Info                      : Audio Video Interleave
File size                        : 1.04 GiB
Duration                         : 59mn 3s
Overall bit rate                 : 2 527 Kbps
Writing application              : VirtualDubModRus 1.5.10.2 (build 2542/release)
Writing library                  : VirtualDubMod build 2542/release


ID                               : 0
Format                           : MPEG-4 Visual
Format profile                   : Advanced Simple@L5
Format settings, BVOP            : 2
Format settings, QPel            : No
Format settings, GMC             : No warppoints
Format settings, Matrix          : Default (MPEG)
Codec ID                         : XVID
Codec ID/Hint                    : XviD
Duration                         : 59mn 3s
Bit rate                         : 1 425 Kbps
Width                            : 720 pixels
Height                           : 404 pixels
Display aspect ratio             : 16:9
Frame rate                       : 23.976 fps
Color space                      : YUV
Chroma subsampling               : 4:2:0
Bit depth                        : 8 bits
Scan type                        : Progressive
Compression mode                 : Lossy
Bits/(Pixel*Frame)               : 0.204
Stream size                      : 602 MiB (56%)
Writing library                  : XviD 63


Audio #1
ID                               : 1
Format                           : AC-3
Format/Info                      : Audio Coding 3
Mode extension                   : CM (complete main)
Codec ID                         : 2000
Duration                         : 59mn 3s
Bit rate mode                    : Constant
Bit rate                         : 448 Kbps
Channel(s)                       : 6 channels
Channel positions                : Front: L C R, Side: L R, LFE
Sampling rate                    : 48.0 KHz
Bit depth                        : 16 bits
Compression mode                 : Lossy
Stream size                      : 189 MiB (18%)
Alignment                        : Split accross interleaves
Interleave, duration             : 42 ms (1.00 video frame)
Interleave, preload duration     : 500 ms
Title                            : Russian [MCA]

Audio #2
ID                               : 2
Format                           : AC-3
Format/Info                      : Audio Coding 3
Mode extension                   : CM (complete main)
Codec ID                         : 2000
Duration                         : 59mn 3s
Bit rate mode                    : Constant
Bit rate                         : 640 Kbps
Channel(s)                       : 6 channels
Channel positions                : Front: L C R, Side: L R, LFE
Sampling rate                    : 48.0 KHz
Bit depth                        : 16 bits
Compression mode                 : Lossy
Stream size                      : 270 MiB (25%)
Alignment                        : Split accross interleaves
Interleave, duration             : 42 ms (1.00 video frame)
Interleave, preload duration     : 500 ms
Title                            : Original


Аудио:
1. RU - MVO | AC-3 | stereo | 48 KHz | 448 kbps;
2. JP - AC-3 | 48000Hz | 6ch |  640 Kbps

Субтитры: есть
Перевод: Xyanide & Stan WarHammer

Скриншоты: - показать








Фильм 7 - Обдумывание убийства (Часть II) / A Study in Murder (Part 2) / Satsujin Kousatsu (Go) - показать


Источник рипа: BD-Rip [ANE]
Контейнер: avi
Видео: XviD (Build 63) | 23.98fps | ~ 1700 kbps | 720x404 pixels; (by Renmei Rei)
MediaInfo - показать
General
Complete name                    : E:\HWP\Kara no Kyoukai [1-7 of 7 + OVA + specials][BD-Rip]HWP\Kara no Kyoukai - The Garden of Sinners 7\Gekijouban_Kara_no_Kyoukai_Dai_Nana_Shou_-_Satsujin_Kousatsu_(Go)_[ru_jp]_[MCA_&_AnimeReactor_RU].avi
Format                           : AVI
Format/Info                      : Audio Video Interleave
Format profile                   : OpenDML
File size                        : 2.17 GiB
Duration                         : 2h 0mn
Overall bit rate                 : 2 588 Kbps
Writing application              : VirtualDubModRus 1.5.10.2 (build 2542/release)
Writing library                  : VirtualDubMod build 2542/release


ID                               : 0
Format                           : MPEG-4 Visual
Format profile                   : Advanced Simple@L5
Format settings, BVOP            : 2
Format settings, QPel            : No
Format settings, GMC             : No warppoints
Format settings, Matrix          : Default (H.263)
Codec ID                         : XVID
Codec ID/Hint                    : XviD
Duration                         : 2h 0mn
Bit rate                         : 1 674 Kbps
Width                            : 720 pixels
Height                           : 404 pixels
Display aspect ratio             : 16:9
Frame rate                       : 23.976 fps
Color space                      : YUV
Chroma subsampling               : 4:2:0
Bit depth                        : 8 bits
Scan type                        : Progressive
Compression mode                 : Lossy
Bits/(Pixel*Frame)               : 0.240
Stream size                      : 1.40 GiB (65%)
Writing library                  : XviD 63


Audio #1
ID                               : 1
Format                           : AC-3
Format/Info                      : Audio Coding 3
Mode extension                   : CM (complete main)
Codec ID                         : 2000
Duration                         : 2h 0mn
Bit rate mode                    : Constant
Bit rate                         : 256 Kbps
Channel(s)                       : 2 channels
Channel positions                : Front: L R
Sampling rate                    : 48.0 KHz
Bit depth                        : 16 bits
Compression mode                 : Lossy
Stream size                      : 220 MiB (10%)
Alignment                        : Split accross interleaves
Interleave, duration             : 42 ms (1.00 video frame)
Interleave, preload duration     : 500 ms
Title                            : Russian [MCA]

Audio #2
ID                               : 2
Format                           : AC-3
Format/Info                      : Audio Coding 3
Mode extension                   : CM (complete main)
Codec ID                         : 2000
Duration                         : 2h 0mn
Bit rate mode                    : Constant
Bit rate                         : 640 Kbps
Channel(s)                       : 6 channels
Channel positions                : Front: L C R, Side: L R, LFE
Sampling rate                    : 48.0 KHz
Bit depth                        : 16 bits
Compression mode                 : Lossy
Stream size                      : 549 MiB (25%)
Alignment                        : Split accross interleaves
Interleave, duration             : 42 ms (1.00 video frame)
Interleave, preload duration     : 500 ms
Title                            : Original [Japanese 6ch]



Аудио:
1. RU - MVO | AC-3 | stereo | 48 KHz | 256 kbps;
2. JP - AC-3 | 48000Hz | 6ch |  640 Kbps

Субтитры: есть
Перевод: Xyanide & Stan WarHammer

Скриншоты: - показать











Эпилог / Epilogue - показать


Источник рипа: BD-Rip [ANE]
Контейнер: avi
Видео: XviD (Build 63) | 23.98fps | ~ 1800 kbps | 720x404 pixels; (by Renmei Rei)

Аудио:
1. RU - MVO | AC-3 | stereo | 48 KHz | 320 kbps;
2. JP - AC-3 | 48000Hz | 6ch |  448 Kbps

Субтитры: есть
Перевод: HARO & Advantage

Скриншоты: - показать




Хронологический порядок просмотра: - показать

1. Фильм 2 - Обдумывание убийства (Часть I) / A Study in Murder (Part 1) / Satsujin Kousatsu (Zen)
2. Фильм 4 - Храм Пустоты / The Hollow Shrine / Garan no Dou
3. Фильм 3 - Оставшееся чувство боли / Remaining Sense of Pain / Tsuukaku Zanryuu
4. Фильм 1 - Вид свысока / Overlooking View / Fukan Fuukei
5. Фильм 5 - Спираль парадокса / Paradox Spiral / Mujun Rasen
6. Фильм 6 - Записи забвения / Oblivion Recorder / Boukyaku Rokuon
7. Фильм-компиляция
8. Фильм 7 - Обдумывание убийства (Часть II) / A Study in Murder (Part 2) / Satsujin Kousatsu (Go)
9. Эпилог / Epilogue


Озвучивание:
Vaily - Рёги Шики
Valkrist - Кокуто Микия
Keneretta - Аозаки Токо, голос автоответчика.
Kasumi - Диллер
Volk - Арая Сорен
Aki74 - Ширазуми Лио
Radiant - Акими Дайске
Slage - Гакуто, Коитсу, Второй план
Cover - полицейский 2


Комментарии: пересобрана русская дорожка с первого и пятого  мувика.




05.07.2012 - раздача обновлена. В Эпилоге заменена вторая дорожка. Теперь она японская.
Дядя Шарик
Релиз от
источник
ARRU & Moscow City Animegroup - MCA & Kasumi & aki74 & REBUILD ARRU   &   ARRU Poster & Renmei Rei
А вы ничего не забыли?
наверх

Последние поступления