ARRU





The Sky Crawlers
Небесные скитальцы (фильм)(2008)[BD-Rip][HWP][ARRU Workshop]   Bookmark


Скачать вход / регистрация
Тема на форуме Обсудить фильм (комментариев: 52)
Обсуждение раздачи (комментариев: 12)
ОписаниеThe Sky Crawlers / Небесные скитальцы (фильм)(2008)[BD-Rip][HWP][ARRU Workshop]
Оригинальное название: スカイ・クロラ  The Sky Crawlers
Английское название: The Sky Crawlers
Русское название: Небесные скитальцы
Страна: Япония
Год выпуска / период трансляции: 02.08.2008
Жанр: драма
Категория: Movie
Количество эпизодов: 1
Продолжительность: 121 мин.
Режиссёр: Осии Мамору
Режиссёр-постановщик: Нисикубо Мидзухо
Сценарий: Ито Тихиро
Автор оригинала: Мори Хироси
Композитор: Кавай Кэндзи
Студия:


Описание:
«Каждому поколению своя война», - говорил Мао Цзэдун, не зря изучавший в молодости древние китайские трактаты. Только страх заставляет людей ценить мирную жизнь, только сознание, что кто-то там постоянно сражается и умирает. Эту истину хорошо усвоили в альтернативном мире, развитие которого остановилось на уровне середины нашего XX века. Война из ужаса и проклятия превратилась в бизнес и ремесло, рычаги управления переместились к транснациональным корпорациям. Две из них - «Росток» и «Лаутерн» - специализируются на бесконечной военной игре, которую ведет самый передовой род войск – авиация. Поле битвы – весь мир, убивать можно только комбатантов, бомбить только военные объекты, а мирные жители смотрят на ТВ воздушные сражения в реальном времени и со вкусом обсуждают их, как спортивные матчи.

Молодой пилот Юйти Каннами, воюющий за «Росток», прибывает на небольшую базу Урису, которой командует молодая женщина Суйто Кусанаги. Впрочем, Юйти еще моложе – ведь он принадлежит к касте Килдрен – генетически модифицированным людям, которые, выйдя из подросткового возраста, больше не стареют, погибая только в битвах. Новичок быстро осваивается на базе, а летное мастерство помогает ему заслужить уважение боевых товарищей. Юйти втягивается в повседневную жизнь «небесных скитальцев», но вскоре в череде вылетов и нехитрых развлечений начинает замечать странные вещи. Постепенно он понимает, что развитие отношений с Кусанаги поможет найти ответы… вот только принесут ли они облегчение?
Hollow

Действие фильма происходит в альтернативной Европе второй половины 20 века, в которой все еще идет война. Но война уже не государств, а двух промышленных сверх-корпораций – Rostock и Lautern. Сюжет разворачивается вокруг пилотов и персонала небольшой авиабазы корпорации Rostock, откуда вылетают на боевые операции истребители.

Источник рипа: BD-Rip [THORA]
Автор рипа\энкод: Renmei Rei
Тип видео: Без хардсаба
Контейнер: AVI
Видео: XviD (Build 64) | 720 x 404 пикселей | 23,976 кадра/сек | ~1500 Кбит/сек ;

Аудио:
RUS: AC-3 | 48.0 КГц | стерео | 256 Кбит/сек;
JAP:  AC-3 | 48.0 КГц | 6 каналов | 448 Кбит/сек

Субтитры: русские\внешние [SRT, SSA][Kazuma-kun]
Перевод с японского: Kazuma-kun
Перевод с английского: Reaper
Перевод песни: Kazuma-kun
Редакторы: Reaper, Тимофей, pleratenpa, Kazuma-kun
Оформление и тайминг: pleratenpa
Благодарим за сотрудничество: ST & dweeb
Озвучили: Sagi l Valkrist l Yuuhi l Zic l Kasumi [Workshop ARRU]

MediaInfo: - показать
Общее
Полное имя                               : R:\Video\HWP\The Sky Crawlers (movie)[BDRip][HWP][AnimeReactor.RU]\The Sky Crawlers (movie)[BDRip][720x404 XviD AC3x2][WorkshopARRU].avi
Формат                                   : AVI
Формат/Информация                        : Audio Video Interleave
Размер файла                             : 1,90 Гбайт
Продолжительность                        : 2 ч. 2 м.
Общий поток                              : 2218 Кбит/сек
Программа кодирования                    : VirtualDubModRus 1.5.10.2 (build 2542/release)
Библиотека кодирования                   : VirtualDubMod build 2542/release

Видео
Идентификатор                            : 0
Формат                                   : MPEG-4 Visual
Профиль формата                          : Advanced Simple@L5
Параметр BVOP формата                    : 2
Параметр QPel формата                    : Нет
Параметр GMC формата                     : Без точки перехода
Параметр матрицы формата                 : Default (H.263)
Идентификатор кодека                     : XVID
Идентификатор кодека/Подсказка           : XviD
Продолжительность                        : 2 ч. 2 м.
Битрейт                                  : 1500 Кбит/сек
Ширина                                   : 720 пикселей
Высота                                   : 404 пикселя
Соотношение сторон                       : 16:9
Частота кадров                           : 23,976 кадра/сек
Цветовое пространство                    : YUV
Субдискретизация насыщенности            : 4:2:0
Битовая глубина                          : 8 бит
Тип развёртки                            : Прогрессивная
Метод сжатия                             : С потерями
Бит/(Пиксели*Кадры)                      : 0.215
Размер потока                            : 1,28 Гбайт (68%)
Библиотека кодирования                   : XviD 64

Аудио #1
Идентификатор                            : 1
Формат                                   : AC-3
Формат/Информация                        : Audio Coding 3
Расширение режима                        : CM (complete main)
Параметр Endianness формата              : Big
Идентификатор кодека                     : 2000
Продолжительность                        : 2 ч. 2 м.
Вид битрейта                             : Постоянный
Битрейт                                  : 256 Кбит/сек
Каналы                                   : 2 канала
Расположение каналов                     : Front: L R
Частота                                  : 48,0 КГц
Битовая глубина                          : 16 бит
Метод сжатия                             : С потерями
Размер потока                            : 224 Мбайт (12%)
Выравнивание                             : Разделение по промежуткам
Продолжительность промежутка             : 42  мс. (1,00 видеокадр)
Время предзагрузки промежутка            : 500  мс.
Заголовок                                : Russian [ARRU Workshop]

Аудио #2
Идентификатор                            : 2
Формат                                   : AC-3
Формат/Информация                        : Audio Coding 3
Расширение режима                        : CM (complete main)
Параметр Endianness формата              : Big
Идентификатор кодека                     : 2000
Продолжительность                        : 2 ч. 2 м.
Вид битрейта                             : Постоянный
Битрейт                                  : 448 Кбит/сек
Каналы                                   : 6 каналов
Расположение каналов                     : Front: L C R, Side: L R, LFE
Частота                                  : 48,0 КГц
Битовая глубина                          : 16 бит
Метод сжатия                             : С потерями
Размер потока                            : 392 Мбайт (20%)
Выравнивание                             : Разделение по промежуткам
Продолжительность промежутка             : 42  мс. (1,00 видеокадр)
Время предзагрузки промежутка            : 500  мс.
Заголовок                                : Japanese [Original]


Скриншоты: - показать


Дядя Шарик
Релиз от
источник
Мастерская АРРУ RenmeiRei REBUILD ARRU
А вы ничего не забыли?
наверх

Последние поступления