ARRU





Future Boy Conan
Конан - мальчик из будущего (1978)[1-26 из 26][BDRip][HWP]   Bookmark


Скачать вход / регистрация
Тема на форуме Обсудить аниме (комментариев: 1)
Обсуждение раздачи (комментариев: 11)
ОписаниеFuture Boy Conan / Конан - мальчик из будущего (1978)[1-26 из 26][BDRip][HWP]
Оригинальное название: 未来少年コナン / Mirai Shounen Conan
Английское название: Future Boy Conan
Русское название: Конан - мальчик из будущего
Страна: Япония
Год выпуска / период трансляции: 1978-04-04 — 1978-10-31
Жанр: приключения, постапокалиптика, фантастика, драма
Категория: TV
Количество эпизодов: 26
Продолжительность: ~28 min
Режиссёр: Hayao Miyazaki (eps 1-8, 11-26), Isao Takahata (Eps 9, 10), Keiji Hayakawa
Сценарий: Akira Nakano, Hayao Miyazaki (eps 3-4, 8, 12, 15, 17), Soji Yoshikawa
Автор оригинала: Alexander Key
Композитор: Shinichiro Ikebe
Сейю: Mieko Nobusawa as Lana, Noriko Ohara as Conan, Hideyuki Tanaka as Cheet/Luke, Hiroshi Masuoka as Gutch, Hiroya Ishimaru as Orlo, Ichirô Nagai as Dyce, Iemasa Kayumi as Lepka, Issei Futamata as Pasco, Junji Chiba as Jun, Kazuyo Aoki as Jimsy, ...
Студия:


Описание:
Будущее, двадцать лет спустя третьей мировой войны 2008 года, в которой погибла большая часть земной суши, оставшиеся же в живых люди живут на островах, окружённых безбрежным океаном. Одиннадцатилетний мальчик по имени Конан, наделённый сверхчеловеческой силой, встречает девочку по имени Лана, чей дедушка, доктор Лао, владеет секретом создания оружия, способного разрушать континенты, поэтому за Ланой охотятся шпионы государства Индустрия. Теперь только Конан может спасти девочку и весь мир от окончательного уничтожения.

Названия эпизодов:
01. Remnant Island
02. The Journey
03. The First Companion
04. The Barracuda
05. Industria
06. Dyce's Rebellion
07. Chase
08. Escape
09. The Salvage Ship
10. Dr. Lao
11. Escaping
12. Core Block
13. High Harbor
14. A Day on the Island
15. Barren Land
16. The Hut for Two
17. Battle
18. Gun Boat
19. A Big Tidal Wave
20. Going to Industria Again
21. Residents Under the Ground
22. Rescue
23. The Solar Tower
24. Giganto
25. The End of Industria
26. Denouement


Источник рипа: BDRip
Автор рипа\энкод: Renmei Rei
Тип видео: Без хардсаба
Контейнер: avi
Видео: XviD (Build 64) | 720 x 540 пикселей | 23,976 кадра/сек | ~1800 Кбит/сек ;

Аудио:
RUS: AC-3 | 48.0 КГц | стерео | 224 Кбит/сек;
JAP: AC-3 | 48.0 КГц | стерео | 256 Кбит/сек

Субтитры:
• русские\внешние [SRT][Григорьев Владимир aka Hahahoj[DaiAnime]]

Перевод: Григорьев Владимир aka Hahahoj[DaiAnime]
Озвучивание: Е. Лурье [Suzaku]
Тайминг/подгон русской дорожки: Renmei Rei

MediaInfo: - показать
Общее
Полное имя                               : R:\Video\HWP\Future Boy Conan (TV)[1-26 of 26][BDRip][HWP][AnimeReactor.ru]\Future Boy Conan [01 of 26][BDRip][720x540 XviD AC3x2][AnimeReactor.RU].avi
Формат                                   : AVI
Формат/Информация                        : Audio Video Interleave
Размер файла                             : 477 Мбайт
Продолжительность                        : 29 м.
Общий поток                              : 2294 Кбит/сек
Программа кодирования                    : VirtualDubModRus 1.5.10.2 (build 2542/release)
Библиотека кодирования                   : VirtualDubMod build 2542/release

Видео
Идентификатор                            : 0
Формат                                   : MPEG-4 Visual
Профиль формата                          : Advanced Simple@L5
Параметр BVOP формата                    : 2
Параметр QPel формата                    : Нет
Параметр GMC формата                     : Без точки перехода
Параметр матрицы формата                 : Default (H.263)
Идентификатор кодека                     : XVID
Идентификатор кодека/Подсказка           : XviD
Продолжительность                        : 29 м.
Битрейт                                  : 1800 Кбит/сек
Ширина                                   : 720 пикселей
Высота                                   : 544 пикселя
Соотношение сторон                       : 4:3
Частота кадров                           : 23,976 кадра/сек
Цветовое пространство                    : YUV
Субдискретизация насыщенности            : 4:2:0
Битовая глубина                          : 8 бит
Тип развёртки                            : Прогрессивная
Метод сжатия                             : С потерями
Бит/(Пиксели*Кадры)                      : 0.192
Размер потока                            : 374 Мбайт (78%)
Библиотека кодирования                   : XviD 64

Аудио #1
Идентификатор                            : 1
Формат                                   : AC-3
Формат/Информация                        : Audio Coding 3
Расширение режима                        : CM (complete main)
Параметр Endianness формата              : Big
Идентификатор кодека                     : 2000
Продолжительность                        : 29 м.
Вид битрейта                             : Постоянный
Битрейт                                  : 224 Кбит/сек
Каналы                                   : 2 канала
Расположение каналов                     : Front: L R
Частота                                  : 48,0 КГц
Битовая глубина                          : 16 бит
Метод сжатия                             : С потерями
Размер потока                            : 46,5 Мбайт (10%)
Выравнивание                             : Разделение по промежуткам
Продолжительность промежутка             : 42  мс. (1,00 видеокадр)
Время предзагрузки промежутка            : 500  мс.
Заголовок                                : Russian [Е. Лурье]

Аудио #2
Идентификатор                            : 2
Формат                                   : AC-3
Формат/Информация                        : Audio Coding 3
Расширение режима                        : CM (complete main)
Параметр Endianness формата              : Big
Идентификатор кодека                     : 2000
Продолжительность                        : 29 м.
Вид битрейта                             : Постоянный
Битрейт                                  : 256 Кбит/сек
Каналы                                   : 2 канала
Расположение каналов                     : Front: L R
Частота                                  : 48,0 КГц
Битовая глубина                          : 16 бит
Метод сжатия                             : С потерями
Размер потока                            : 53,2 Мбайт (11%)
Выравнивание                             : Разделение по промежуткам
Продолжительность промежутка             : 42  мс. (1,00 видеокадр)
Время предзагрузки промежутка            : 500  мс.
Заголовок                                : Japanese [Original]




Скриншоты: - показать


У кого возникают вопросы, настоящий ли это БД рип:
Ну и прилогаеться, еще и еще

Примеры: - показать
DVD


BD
Дядя Шарик
Релиз от
источник
ARRU & Netlab AnimaGroup & RenmeiRei & REBUILD ARRU
А вы ничего не забыли?
наверх

Последние поступления