ARRU





Phantom Requiem for the Phantom
Фантом: Реквием по Призраку(2009)[01-26 из 26][BDrip][HWP]   Bookmark


Скачать вход / регистрация
Тема на форуме Обсудить аниме (комментариев: 362)
Обсуждение раздачи (комментариев: 46)
ОписаниеPhantom Requiem for the Phantom / Фантом: Реквием по Призраку(2009)[01-26 из 26][BDrip][HWP]
Оригинальное название: ファントム Phantom ~Requiem for the Phantom~
Английское название: Phantom: Requiem for the Phantom
Русское название: Фантом: Реквием по Призраку
Страна: Япония
Период трансляции: c 03.04.2009
Жанр: приключения, боевик
Возрастное ограничение: 14+
Категория: TV
Количество эпизодов: 26 эп.
Продолжительность: 25 мин.
Режиссёр: Масимо Койти / Mashimo Koichi / 真下耕一
Сценарий: Курода Ёсукэ / Kuroda Yousuke / 黒田洋介
Автор оригинала: Уробути Гэн / Urobuchi Gen / 虚淵玄
Композитор: Ито Масуми / Itou Masumi / 伊藤真澄 / 七瀬光
Студия:


Описание:
  Зловещая организация «Инферно» расчищает дорогу к власти, одного за другим устраняя боссов американской мафии руками «Фантома» - легендарного киллера, не ведающего неудач. Кроме имени, о призрачном убийце мало что известно, ведь видевшие его «за работой» уже ничего не расскажут. Но то, что неведомо бывалым бандитам и вездесущим спецслужбам, случайно узнает молодой японец Рэйдзи, в одиночку странствующий по Штатам. Быть бы нежелательному свидетелю на небесах, но босс, наблюдавший за операцией, остановил Фантома в последний момент…
  Боссам «Инферно» понравилось поведение Рэйдзи перед смертью, и ему дали второй шанс. Промыв парню мозги и стерев память, новые хозяева решили, что быстрые рефлексы и воля к жизни сделают его отличным исполнителем. Так что когда Рэйдзи очнулся, не помня себя, в какой-то дыре, перед ним явилась милая девушка, назвавшаяся Айн («первая») и предложила сыграть в игру на выживание. Это и был легендарный Фантом. Но и наш герой оказался не лыком шит, достойно сдав последний экзамен (хотя противница, конечно, поддавалась). Теперь новичок получил кодовое имя Цвай («второй») и был зачислен к Айн в стажеры. Только оба они, хотя и потеряли память, ума не утратили и вскоре поняли, что долго такая жизнь продолжаться не может. Вопрос остался лишь один – ждать или стрелять первым?
© Hollow

Названия эпизодов:
01. Awakening
02. Training
03. Putting It Into Practice
04. Assassination
05. Instant
06. Great Fire
07. The Past
08. Emergency
09. Name
10. End
11. Succession
12. Apparition
13. Disguise
14. Surveillance
15. Reunion
16. Confession
17. Truth
18. Confrontation
19. Promise
20. Old Home
21. Anger
22. Rage
23. Determination
24. Confronting
25. Conclusion
26. Elen


Источник рипа:
BD-Rip [Coalgirls (1,2,4-7,17-26)]

• BD-Rip [Yousei-raws (3,8-16)]
Автор рипа\энкод: Renmei Rei
Тип видео: Без хардсаба
Контейнер: AVI
Видео: XviD (Build 64) | 720 x 404 пикселей | 23,976 кадра/сек | ~1500 Кбит/сек ;

Внимание: замена видео с 17-й серии. Теперь все в 400р.

Аудио:
RUS: AC-3 | 48.0 КГц | стерео | 256 Кбит/сек;
JAP:  AC-3 | 48.0 КГц | стерео | 256 Кбит/сек

Субтитры: русские\отдельно [SRT, SSA][Hellstrike & Lasher]
Перевод: Hellstrike & Lasher

Озвучивание:
• Valkrist & Keneretta 1-5 эпизоды
• Valkrist & Kasumi 6-26 эпизоды

MediaInfo: - показать
Общее
Полное имя                               : R:\Video\HWP\Phantom Requiem for the Phantom [1-26 of 26][BDRip][HWP][AnimeReactor.RU]\Phantom Requiem for the Phantom [01 of 26][BDRip][720x404 XviD AC3x2][MCA & AnimeReactor.Ru].avi
Формат                                   : AVI
Формат/Информация                        : Audio Video Interleave
Размер файла                             : 343 Мбайт
Продолжительность                        : 23 м.
Общий поток                              : 2034 Кбит/сек
Программа кодирования                    : VirtualDubModRus 1.5.10.2 (build 2542/release)
Библиотека кодирования                   : VirtualDubMod build 2542/release

Видео
Идентификатор                            : 0
Формат                                   : MPEG-4 Visual
Профиль формата                          : Advanced Simple@L5
Параметр BVOP формата                    : 2
Параметр QPel формата                    : Нет
Параметр GMC формата                     : Без точки перехода
Параметр матрицы формата                 : Default (H.263)
Идентификатор кодека                     : XVID
Идентификатор кодека/Подсказка           : XviD
Продолжительность                        : 23 м.
Битрейт                                  : 1508 Кбит/сек
Ширина                                   : 720 пикселей
Высота                                   : 404 пикселя
Соотношение сторон                       : 16:9
Частота кадров                           : 23,976 кадра/сек
Цветовое пространство                    : YUV
Субдискретизация насыщенности            : 4:2:0
Битовая глубина                          : 8 бит
Тип развёртки                            : Прогрессивная
Метод сжатия                             : С потерями
Бит/(Пиксели*Кадры)                      : 0.216
Размер потока                            : 254 Мбайт (74%)
Библиотека кодирования                   : XviD 64

Аудио #1
Идентификатор                            : 1
Формат                                   : AC-3
Формат/Информация                        : Audio Coding 3
Расширение режима                        : CM (complete main)
Параметр Endianness формата              : Big
Идентификатор кодека                     : 2000
Продолжительность                        : 23 м.
Вид битрейта                             : Постоянный
Битрейт                                  : 256 Кбит/сек
Каналы                                   : 2 канала
Расположение каналов                     : Front: L R
Частота                                  : 48,0 КГц
Битовая глубина                          : 16 бит
Метод сжатия                             : С потерями
Размер потока                            : 43,1 Мбайт (13%)
Выравнивание                             : Разделение по промежуткам
Продолжительность промежутка             : 42  мс. (1,00 видеокадр)
Время предзагрузки промежутка            : 500  мс.
Заголовок                                : Russian [Valkrist & Keneretta]

Аудио #2
Идентификатор                            : 2
Формат                                   : AC-3
Формат/Информация                        : Audio Coding 3
Расширение режима                        : CM (complete main)
Параметр Endianness формата              : Big
Идентификатор кодека                     : 2000
Продолжительность                        : 23 м.
Вид битрейта                             : Постоянный
Битрейт                                  : 256 Кбит/сек
Каналы                                   : 2 канала
Расположение каналов                     : Front: L R
Частота                                  : 48,0 КГц
Битовая глубина                          : 16 бит
Метод сжатия                             : С потерями
Размер потока                            : 43,1 Мбайт (13%)
Выравнивание                             : Разделение по промежуткам
Продолжительность промежутка             : 42  мс. (1,00 видеокадр)
Время предзагрузки промежутка            : 500  мс.
Заголовок                                : Japanese [Original]


Скриншоты: - показать


Дядя Шарик
Релиз от
источник
ARRU & Moscow City Animegroup - MCA & RenmeiRei & REBUILD ARRU
А вы ничего не забыли?
наверх

Последние поступления