ARRU





To Aru Majutsu no Index
Магический Индекс (TV-1)(2008)[01-24 из 24][BD-Rip][1080p]   Bookmark


Скачать вход / регистрация
Тема на форуме Обсудить аниме (комментариев: 444)
Обсуждение раздачи (комментариев: 16)
Смотреть онлайн
ОписаниеTo Aru Majutsu no Index / Магический Индекс (TV-1)(2008)[01-24 из 24][BD-Rip][1080p]
Оригинальное название: To Aru Majutsu no Index
Английское название: A Certain Magical Index
Русское название: Магический Индекс

Страна: Япония
Период трансляции: c 05.10.2008 по 19.03.2009
Жанр: приключения, фэнтези
Количество эпизодов ТВ: 24
Продолжительность: 25 мин

Студия:
Режиссёр: Нисикиори Хироси
Автор оригинала: Камати Кадзума

Описание:
Камидзё Тома живёт в городе высоких технологий, где множество людей обладают сверхъестественными способностями, в зависимости от силы которых, их определяют к тому или иному уровню. Таких людей называют эсперами, в этом мире их существование является нормой. И главному герою в этом не особенно повезло… он к ним не принадлежит, т. е. он — эспер нулевого уровня. Впрочем, и к обычным людям его можно отнести лишь с большой натяжкой… из-за его тотальной неудачи))). Вот и сегодня всё не заладилось как обычно: вначале защита девушки от подозрительного типа, в результате побег, уже от «кучи» подозрительных типов, и наконец, разве так нужно благодарить своего спасителя?!

И что же принёс ему новый день? Может быть, беды Камидзё ещё и не начинались?)) Или же это долгожданное счастье повисло на его балконе?))

Одноимённая серия ранобэ (коротких романов с иллюстрациями), написанная Кадзумой Камати и иллюстрированная Киётакой Хаимурой, послужила также основой манги Тюи Когино.
To Aru Majutsu no Index, 2007 г.

Названия эпизодов:
01. Academy City
02. The King of Witch Hunt (Innocentius)
03. The Church of Necessary Evil (Necessarius)
04. Perfect Memorization
05. Twelve O'Clock (Limit)
06. Imagine Breaker
07. Misawa Cram School (Science Worship)
08. Golden Training (Ars Magna)
09. Vampire Killer (Deep Blood)
10. Misaka Mikoto
11. Sisters
12. Absolute Power (Level 6)
13. One-way Traffic (Accelerator)
14. Weakest vs. Strongest
15. Angel Fall
16. Father (Kamijou Touya)
17. Archangel (The Power of God)
18. Impostor (Replica)
19. The End (Last Order)
20. Last Signal (Virus Code)
21. Unidentifiable (Counter Stop)
22. Stone Statue (Golem)
23. Kazakiri Hyouka (Friend)
24. Imaginary Number Area - Five Elements Facility


Качество рипа: BDRip
Автор рипа: Yousei-raws
Тип видео: Без хардсаба
Контейнер: mkv
Видео: AVC (x264)| 1920x1080 pixels | 23.976 fps | ~8700Kbps

Аудио:
RUS1: MP3 | 48000Hz | 192 Kbps | 2ch - Persona99
RUS2: MP3 | 48000Hz | 192 Kbps | 2ch - jept
JAP: FLAC | 48000Hz | ~700 Kbps | 2ch

Субтитры: Sora_P3_Heaven и Stan WarHammer
Ретайминг аудио: Wano1981


MediaInfo: - показать

Общее
Формат                           : Matroska
Версия формата                   : Version 2
Размер файла                     : 1,62 Гбайт
Продолжительность                : 23 м.
Режим общего битрейта            : Переменный
Общий поток                      : 9785 Кбит/сек
Дата кодирования                 : UTC 2012-07-01 06:27:31
Программа кодирования            : mkvmerge v3.4.0 сборка от May 15 2010 09:38:20
Библиотека кодирования           : libebml v0.8.0 + libmatroska v0.9.0

Видео
Идентификатор                    : 1
Формат                           : AVC
Формат/Информация                : Advanced Video Codec
Профиль формата                  : High@L4.1
Параметр CABAC формата           : Да
Параметр ReFrames формата        : 4 кадра
Идентификатор кодека             : V_MPEG4/ISO/AVC
Продолжительность                : 23 м.
Номинальный битрейт              : 8714 Кбит/сек
Ширина                           : 1920 пикселей
Высота                           : 1080 пикселей
Соотношение сторон               : 16:9
Частота кадров                   : 23,976 кадра/сек
Цветовое пространство            : YUV
Субдискретизация насыщенности    : 4:2:0
Битовая глубина                  : 8 бит
Тип развёртки                    : Прогрессивная
Бит/(Пиксели*Кадры)              : 0.175
Заголовок                        : BDrip by Yousei
Библиотека кодирования           : x264 core 112 r1834 a51816a
Default                          : Нет
Forced                           : Нет

Аудио #1
Идентификатор                    : 2
Формат                           : MPEG Audio
Версия формата                   : Version 1
Профиль формата                  : Layer 3
Режим                            : Joint stereo
Идентификатор кодека             : A_MPEG/L3
Идентификатор кодека/Подсказка   : MP3
Продолжительность                : 23 м.
Вид битрейта                     : Постоянный
Битрейт                          : 192 Кбит/сек
Каналы                           : 2 канала
Частота                          : 48,0 КГц
Метод сжатия                     : С потерями
Размер потока                    : 32,5 Мбайт (2%)
Заголовок                        : Persona99
Язык                             : Russian
Default                          : Да
Forced                           : Нет

Аудио #2
Идентификатор                    : 3
Формат                           : MPEG Audio
Версия формата                   : Version 1
Профиль формата                  : Layer 3
Режим                            : Joint stereo
Идентификатор кодека             : A_MPEG/L3
Идентификатор кодека/Подсказка   : MP3
Продолжительность                : 23 м.
Вид битрейта                     : Постоянный
Битрейт                          : 192 Кбит/сек
Каналы                           : 2 канала
Частота                          : 48,0 КГц
Метод сжатия                     : С потерями
Размер потока                    : 32,5 Мбайт (2%)
Заголовок                        : jept
Язык                             : Russian
Default                          : Нет
Forced                           : Нет

Аудио #3
Идентификатор                    : 4
Формат                           : FLAC
Формат/Информация                : Free Lossless Audio Codec
Идентификатор кодека             : A_FLAC
Продолжительность                : 23 м.
Вид битрейта                     : Переменный
Каналы                           : 2 канала
Частота                          : 48,0 КГц
Битовая глубина                  : 16 бит
Заголовок                        : Japanese
Библиотека кодирования           : libFLAC 1.2.1 (UTC 2007-09-17)
Язык                             : Japanese
Default                          : Нет
Forced                           : Нет

Текст
Идентификатор                    : 5
Формат                           : ASS
Идентификатор кодека             : S_TEXT/ASS
Идентификатор кодека/Информация  : Advanced Sub Station Alpha
Метод сжатия                     : Без потерь
Заголовок                        : Sora_P3_Heaven & Stan WarHammer
Язык                             : Russian
Default                          : Нет
Forced                           : Нет


Скриншоты: - показать




От себя:
Данный релиз был предоставлен товарищем Wano1981, за что ему огромное спасибо.
Дядя Шарик
Релиз от
источник
ARRU & Get Smart & OriGami / ОриГами & REBUILD ARRU
А вы ничего не забыли?
наверх

Последние поступления