ARRU





Tsubasa: Reservoir Chronicle TV1
Хроника Крыльев (первый сезон)(2005)[BD-Rip][HWP]   Bookmark


Скачать вход / регистрация
Тема на форуме Обсудить аниме (комментариев: 116)
Обсуждение раздачи (комментариев: 74)
ОписаниеTsubasa: Reservoir Chronicle TV1 / Хроника Крыльев (первый сезон)(2005)[BD-Rip][HWP]
Оригинальное название:  ツバサ・クロニクル ( 年代記 )
Английское название: Tsubasa Reservoir Chronicles
Русское название: Хроника Крыльев

Страна: Япония
Жанр: приключения, романтика, драма, фэнтези
Год выхода: 2005
Колличество серий: 26
Продолжительность: 25 мин
Студия: BEETRAIN
Режиссёр: Масимо Койти
Автор оригинала: Кавасаки Хироюки

Описание:
Вселенная Кламп, иной мир… В нем Сакура – принцесса дивной страны Клоу, а Сяоран – молодой археолог, неделями пропадающий на раскопках. Но и в этом мире они встретились и полюбили друг друга. Вот только счастье было недолгим – слишком уж многих привлекает сила, скрытая в принцессе. И пускай посланные убийцы не достигают цели… В пустынных руинах, куда Сакуру занесла сама судьба, за ее спиной вспыхивают радужные Крылья Памяти – и тут же сотнями ярких перьев разлетаются по иным мирам и пространствам.
Чтобы спасти любимую, вернуть ей память, Сяоран должен найти союзников и собрать разлетевшиеся Перья Души – все до одного. Таинственная Ведьма Измерений помогает ему сколотить весьма необычную команду для этой странной миссии. Правда, за услуги Юко требует высокую цену, но герои уверены – оно того стоит. Долгое странствие начинается!

© Hollow

Названия эпизодов - показать

01. Неизбежное Встреча
02. Сила для Боя
03. Меч, Разгоняющий Зло
04. Безгрешный Бродяга
05. Битва Магов
06. Не Пролитые Слёзы
07. Провалы Памяти
08. Любимая Дочь Бога
09. Очаровательная Леди
10. Зеркало Разлуки
11. Избранные Завтра
12. Тёплая Улыбка
13. Повелитель Иллюзий
14. Восстановление Истины
15. Вера в Сердце
16. Сила и Доброта
17. Работа в Кафе
18. Котята и Щенята
19. Жизненное Решение
20. Вечернее Фортепиано
21. Истинное Лицо ОНИ
22. Не Стираемая Память
23. Исчезающая Жизнь
24. Поединок до Смерти
25. Завершающая Игра
26. Последнее Желание


Источник рипа: BD-Rip
Автор рипа\энкод: RACER RS
Тип видео: Без хардсаба
Контейнер: AVI
Видео: XviD 64 | 720 x 404 (16:9) | 23,976 fps | 1450 kbps ;

Аудио:
RUS 1: AC3 | 48000Hz | 256 Kbps | 2ch Little_Polka & Retto & Koyl Van
RUS 2: AC3 | 48000Hz | 128 Kbps | 2ch Е.Лурье с 19 серии Харука
JAP: AC3 | 48000Hz | 256 Kbps | 2ch Original
Субтитры: Ru - soft [ASS] И [SRT]

Перевод: unvasily

MediaInfo: - показать

General
Complete name                            : I:\ARRU Rebuild\Tsubasa Chronicle (TV1) [BDRip] [HWP] Animereactor.ru\Tsubasa Chronicle (TV-1) [03 of 26] [XviD 720 x 404 AC3 x3] [Polka Production & NAG & Animereactor.ru].avi
Format                                   : AVI
Format/Info                              : Audio Video Interleave
File size                                : 377 MiB
Duration                                 : 25mn 1s
Overall bit rate                         : 2 108 Kbps
Writing application                      : VirtualDubMod 1.5.10.2 (build 2540/release)
Writing library                          : VirtualDubMod build 2540/release

Video
ID                                       : 0
Format                                   : MPEG-4 Visual
Format profile                           : Advanced Simple@L5
Format settings, BVOP                    : 2
Format settings, QPel                    : No
Format settings, GMC                     : No warppoints
Format settings, Matrix                  : Default (H.263)
Codec ID                                 : XVID
Codec ID/Hint                            : XviD
Duration                                 : 25mn 1s
Bit rate                                 : 1 450 Kbps
Width                                    : 720 pixels
Height                                   : 404 pixels
Display aspect ratio                     : 16:9
Frame rate                               : 23.976 fps
Color space                              : YUV
Chroma subsampling                       : 4:2:0
Bit depth                                : 8 bits
Scan type                                : Progressive
Compression mode                         : Lossy
Bits/(Pixel*Frame)                       : 0.208
Stream size                              : 259 MiB (69%)
Writing library                          : XviD 64

Audio #1
ID                                       : 1
Format                                   : AC-3
Format/Info                              : Audio Coding 3
Mode extension                           : CM (complete main)
Codec ID                                 : 2000
Duration                                 : 25mn 0s
Bit rate mode                            : Constant
Bit rate                                 : 256 Kbps
Channel(s)                               : 2 channels
Channel positions                        : Front: L R
Sampling rate                            : 48.0 KHz
Bit depth                                : 16 bits
Compression mode                         : Lossy
Stream size                              : 45.8 MiB (12%)
Alignment                                : Split accross interleaves
Interleave, duration                     : 42 ms (1.00 video frame)
Interleave, preload duration             : 500 ms
Title                                    : Little Polka & Retto & Koyl Van [Russian]

Audio #2
ID                                       : 2
Format                                   : AC-3
Format/Info                              : Audio Coding 3
Mode extension                           : CM (complete main)
Codec ID                                 : 2000
Duration                                 : 24mn 59s
Bit rate mode                            : Constant
Bit rate                                 : 128 Kbps
Channel(s)                               : 2 channels
Channel positions                        : Front: L R
Sampling rate                            : 48.0 KHz
Bit depth                                : 16 bits
Compression mode                         : Lossy
Stream size                              : 22.9 MiB (6%)
Alignment                                : Split accross interleaves
Interleave, duration                     : 42 ms (1.00 video frame)
Interleave, preload duration             : 500 ms
Title                                    : Е.Лурье [Russian]

Audio #3
ID                                       : 3
Format                                   : AC-3
Format/Info                              : Audio Coding 3
Mode extension                           : CM (complete main)
Codec ID                                 : 2000
Duration                                 : 25mn 1s
Bit rate mode                            : Constant
Bit rate                                 : 256 Kbps
Channel(s)                               : 2 channels
Channel positions                        : Front: L R
Sampling rate                            : 48.0 KHz
Bit depth                                : 16 bits
Compression mode                         : Lossy
Stream size                              : 45.8 MiB (12%)
Alignment                                : Split accross interleaves
Interleave, duration                     : 42 ms (1.00 video frame)
Interleave, preload duration             : 500 ms
Title                                    : Original [Japanese]



Скриншоты: - показать




Дядя Шарик
Релиз от
источник
ARRU & Netlab AnimaGroup & Polka Production & REBUILD ARRU   &   RACER_RS
А вы ничего не забыли?
наверх

Последние поступления