ARRU





Chrono Crusade
Крестовый поход Хроно (TV)(2003)[01-24 из 24][DVD-Rip]   Bookmark


Скачать вход / регистрация
Тема на форуме Обсудить аниме (комментариев: 162)
Обсуждение раздачи (комментариев: 104)
ОписаниеChrono Crusade / Крестовый поход Хроно (TV)(2003)[01-24 из 24][DVD-Rip]
Оригинальное название: クロノクルセイド
Английское название: Chrono Crusade / Chrno Crusade
Русское название: Крестовый поход Хроно

Страна: Япония
Период трансляции: c 24.11.2003 по 10.06.2004
Жанр: драма, фэнтези, приключения
Количество эпизодов ТВ: 24
Продолжительность: 25 мин

Студия: GONZO
Режиссёр: Ко Ю
Автор оригинала: Морияма Дайсукэ
Композитор: Hikaru Nanase

Описание:
Двадцатые годы XX века. Под звуки джаза рекой льется запрещенное спиртное, а состоятельные люди забавляются тем, что... призывают демонов. Но на пути потусторонних сил встает Магдаленский орден! Это история Розетты Кристофер - опытной экзорцистки, чья душа алхимически связана с демоном по имени Хроно. Непобедимый дуэт ведет поиски пропавшего брата Розетты - Иешуа, и попутно отправляет исчадия ада обратно в Преисподнюю!
World Art

Эпизоды:
01. Pilot ~ Sister Rosetta
02. The Covenant ~ Contractor
03. Apostles ~ The Angel
04. Sinners
05. Militia
06. Jewel Summoner
07. The Devil
08. Falling Rain ~ The Puppet
09. Joshua
10. Horn
11. Gabriel Hound ~ Beast
12. Holy Night
13. Marionette Train ~ Older Sister
14. Invocation ~ Prayer
15. The Pursuers
16. Believer
17. Accomplices
18. Photograph ~ Four People
19. Atonement ~ Neck
20. Temptation ~ Poison
21. Mary Magdalene ~ Magdalene
22. Farewell
23. The Noise
24. Chrno


Качество рипа: DVD-Rip
Автор рипа: SilentSpider
Тип видео: Без хардсаба
Контейнер: mkv
Видео: AVC (x264)| 720x544 pixels | 23.976 fps | 1500 Kbps


Аудио:
RUS: AC3 | 48000Hz | ~450 Kbps | 5.1ch
JAP: Vorbis | 48000Hz | 192 Kbps | 2ch

Озвучивание: MC Entertainment
Перевод: MC Entertainment
Субтитры: MC Entertainment
Субтитры: Robin
Редакция субтитров:SilentSpider



MediaInfo: - показать

Общее
Формат                           : Matroska
Версия формата                   : Version 2
Размер файла                     : 354 Мбайт
Продолжительность                : 23 м.
Общий поток                      : 2142 Кбит/сек
Дата кодирования                 : UTC 2012-06-22 16:06:47
Программа кодирования            : mkvmerge v3.4.0  сборка от May 15 2010 09:38:20
Библиотека кодирования           : libebml v0.8.0 + libmatroska v0.9.0

Видео
Идентификатор                    : 1
Формат                           : AVC
Формат/Информация                : Advanced Video Codec
Профиль формата                  : High@L4.1
Параметр CABAC формата           : Да
Параметр ReFrames формата        : 16 кадров
Идентификатор кодека             : V_MPEG4/ISO/AVC
Продолжительность                : 23 м.
Битрейт                          : 1500 Кбит/сек
Ширина                           : 720 пикселей
Высота                           : 544 пикселя
Соотношение сторон               : 4:3
Частота кадров                   : 23,976 кадра/сек
Цветовое пространство            : YUV
Субдискретизация насыщенности    : 4:2:0
Битовая глубина                  : 8 бит
Тип развёртки                    : Прогрессивная
Бит/(Пиксели*Кадры)              : 0.160
Размер потока                    : 241 Мбайт (68%)
Заголовок                        : SilentSpider
Библиотека кодирования           : x264 core 120 r2164 da19765
Язык                             : Japanese
Default                          : Да
Forced                           : Нет

Аудио #1
Идентификатор                    : 2
Формат                           : AC-3
Формат/Информация                : Audio Coding 3
Расширение режима                : CM (complete main)
Идентификатор кодека             : A_AC3
Продолжительность                : 23 м.
Вид битрейта                     : Постоянный
Битрейт                          : 448 Кбит/сек
Каналы                           : 6 каналов
Расположение каналов             : Front: L C R, Side: L R, LFE
Частота                          : 48,0 КГц
Битовая глубина                  : 16 бит
Метод сжатия                     : С потерями
Задержка видео                   : 1 с. 20 мс.
Размер потока                    : 74,1 Мбайт (21%)
Заголовок                        : MC Entertainment
Язык                             : Russian
Default                          : Да
Forced                           : Нет

Аудио #2
Идентификатор                    : 3
Формат                           : AC-3
Формат/Информация                : Audio Coding 3
Расширение режима                : CM (complete main)
Идентификатор кодека             : A_AC3
Продолжительность                : 23 м.
Вид битрейта                     : Постоянный
Битрейт                          : 192 Кбит/сек
Каналы                           : 2 канала
Расположение каналов             : Front: L R
Частота                          : 48,0 КГц
Битовая глубина                  : 16 бит
Метод сжатия                     : С потерями
Размер потока                    : 31,7 Мбайт (9%)
Заголовок                        : Original
Язык                             : Japanese
Default                          : Нет
Forced                           : Нет

Текст #1
Идентификатор                    : 4
Формат                           : UTF-8
Идентификатор кодека             : S_TEXT/UTF8
Идентификатор кодека/Информация  : UTF-8 Plain Text
Заголовок                        : MC Entertainment
Язык                             : Russian
Default                          : Нет
Forced                           : Нет

Текст #2
Идентификатор                    : 5
Формат                           : UTF-8
Идентификатор кодека             : S_TEXT/UTF8
Идентификатор кодека/Информация  : UTF-8 Plain Text
Заголовок                        : Robin
Язык                             : Russian
Default                          : Нет
Forced                           : Нет


Скриншоты: - показать




От себя:
Данный релиз был осуществлён только благодаря SilentSpider, за что ему огромное спасибо.
Дядя Шарик
Релиз от
источник
ARRU & - Найдено в сети & REBUILD ARRU
А вы ничего не забыли?
наверх

Последние поступления