ARRU





Speed Grapher
Экстремальный фотограф (2005)[1-24 из 24][DVD-Rip][HWP]   Bookmark


Скачать вход / регистрация
Тема на форуме Обсудить аниме (комментариев: 32)
Обсуждение раздачи (комментариев: 162)
ОписаниеSpeed Grapher / Экстремальный фотограф (2005)[1-24 из 24][DVD-Rip][HWP]
Оригинальное название: スピードグラファー
Английское название: Speed Grapher
Русское название: Экстремальный фотограф
Страна: Япония
Период трансляции: c 07.04.2005 по 29.09.2005
Жанр: мистерия, психология, мистика
Возрастное ограничение: 16+
Категория: TV
Количество эпизодов: 24
Продолжительность: 23 минуты
Студия:


Описание:
Однажды бывший военный фотограф Тацуми Сайга проник на встречу известного в определённых кругах, закрытого от сторонней публики клуба. Здесь правят балом маски, здесь нет праведников. Это место - рай, но рай для грешников. Как и в каждом уважающем себя клубе, здесь для VIP-членов существуют свои восхитительные привилегии. Раз в определённый отрезок времени для этих избранных проводятся церемонии. «Богиня исполнит ваше самое сокровенное желание, настолько сокровенное, что вы сами не сможете его назвать…». В этот день пришло время для очередной церемонии, она и всё произошедшее изменили самого Сайгу… Ведь вместо того, чтобы убить чужака по приказу президента клуба, «богиня» избрала его. Какое сокровенное желание было у нашего героя? Кто эта девушка, что дарит этим монстрам таланты, исполняя их желания? Выживет ли Сайга? Узнать ответы на вопросы можно, посмотрев новое аниме от небезызвестной GONZO Animation.
© Xsirt

Названия эпизодов:
01. Immoral City
02. The Roaring Bankroll
03. Death by Photo
04. Booty Girl
05. Lady Diamond
06. Goodbye, Madam Diamond
07. Macabre Drill
08. Light of Kagura
09. In the bathroom
10. Suitengu is coming
11. A Sudden Change in Mother's Sickness
12. Sleeping, Embraced on the Left
13. Ginza Prison
14. God of Death
15. Woman of Hell
16. Half-Term Financial Statement
17. Upstart of the God of Death
18. The Third Channel
19. Lies and Lips
20. Good Vibration
21. President`s Breakfast
22. Money Please
23. Gravestone of Bank Notes
24. Roppongi Crisis


Источник рипа: DVDRip [FOSKY]
Автор рипа\энкод: Renmei Rei
Тип видео: Без хардсаба
Контейнер: AVI
Видео: XviD (Build 64) | 720 x 404 пикселей | 23,976 кадра/сек | ~1500 Кбит/сек ;

Аудио:
RUS1: AC-3 | 48.0 КГц | стерео | 192 Кбит/сек; закадровый любительский одноголосый - Е. Лурье (1-12), Харука (13-24)
RUS2: mp3 | 44.1 КГц | стерео | 126 Кбит/сек; закадровый професиональный многоголосый - 2х2
JAP:  AC-3 | 48.0 КГц | стерео | 224 Кбит/сек оригинал

Субтитры: русские\отдельно [SRT, SSA][Suzaku]
Перевод: Suzaku

MediaInfo: - показать
Общее
Полное имя                               : R:\Video\HWP\Speed Grapher (TV)[1-24 of 24][DVDRip][HWP][AnimeReactor.RU]\Speed Grapher [01 of 24][DVDRip][720x404 XviD mp3 AC3x2][AnimeReactor_Ru].avi
Формат                                   : AVI
Формат/Информация                        : Audio Video Interleave
Размер файла                             : 342 Мбайт
Продолжительность                        : 23 м.
Общий поток                              : 2063 Кбит/сек
Программа кодирования                    : VirtualDubModRus 1.5.10.2 (build 2542/release)
Библиотека кодирования                   : VirtualDubMod build 2542/release

Видео
Идентификатор                            : 0
Формат                                   : MPEG-4 Visual
Профиль формата                          : Advanced Simple@L5
Параметр BVOP формата                    : 2
Параметр QPel формата                    : Нет
Параметр GMC формата                     : Без точки перехода
Параметр матрицы формата                 : Default (H.263)
Идентификатор кодека                     : XVID
Идентификатор кодека/Подсказка           : XviD
Продолжительность                        : 23 м.
Битрейт                                  : 1500 Кбит/сек
Ширина                                   : 720 пикселей
Высота                                   : 404 пикселя
Соотношение сторон                       : 16:9
Частота кадров                           : 23,976 кадра/сек
Цветовое пространство                    : YUV
Субдискретизация насыщенности            : 4:2:0
Битовая глубина                          : 8 бит
Тип развёртки                            : Прогрессивная
Метод сжатия                             : С потерями
Бит/(Пиксели*Кадры)                      : 0.215
Размер потока                            : 249 Мбайт (73%)
Библиотека кодирования                   : XviD 64

Аудио #1
Идентификатор                            : 1
Формат                                   : AC-3
Формат/Информация                        : Audio Coding 3
Расширение режима                        : CM (complete main)
Параметр Endianness формата              : Big
Идентификатор кодека                     : 2000
Продолжительность                        : 23 м.
Вид битрейта                             : Постоянный
Битрейт                                  : 192 Кбит/сек
Каналы                                   : 2 канала
Расположение каналов                     : Front: L R
Частота                                  : 48,0 КГц
Битовая глубина                          : 16 бит
Метод сжатия                             : С потерями
Размер потока                            : 31,8 Мбайт (9%)
Выравнивание                             : Разделение по промежуткам
Продолжительность промежутка             : 42  мс. (1,00 видеокадр)
Время предзагрузки промежутка            : 500  мс.
Заголовок                                : Russian [Е. Лурье]

Аудио #2
Идентификатор                            : 2
Формат                                   : MPEG Audio
Версия формата                           : Version 1
Профиль формата                          : Layer 3
Идентификатор кодека                     : 55
Идентификатор кодека/Подсказка           : MP3
Продолжительность                        : 23 м.
Вид битрейта                             : Постоянный
Битрейт                                  : 128 Кбит/сек
Каналы                                   : 2 канала
Частота                                  : 44,1 КГц
Метод сжатия                             : С потерями
Задержка видео                           : 26 мс.
Размер потока                            : 21,2 Мбайт (6%)
Выравнивание                             : Разделение по промежуткам
Продолжительность промежутка             : 42  мс. (1,00 видеокадр)
Время предзагрузки промежутка            : 500  мс.
Заголовок                                : Russian [2x2]
Библиотека кодирования                   : LAME3.96.1

Аудио #3
Идентификатор                            : 3
Формат                                   : AC-3
Формат/Информация                        : Audio Coding 3
Расширение режима                        : CM (complete main)
Параметр Endianness формата              : Big
Идентификатор кодека                     : 2000
Продолжительность                        : 23 м.
Вид битрейта                             : Постоянный
Битрейт                                  : 224 Кбит/сек
Каналы                                   : 2 канала
Расположение каналов                     : Front: L R
Частота                                  : 48,0 КГц
Битовая глубина                          : 16 бит
Метод сжатия                             : С потерями
Размер потока                            : 37,1 Мбайт (11%)
Выравнивание                             : Разделение по промежуткам
Продолжительность промежутка             : 42  мс. (1,00 видеокадр)
Время предзагрузки промежутка            : 500  мс.
Заголовок                                : Japanese [Original]


Скриншоты: - показать



Дядя Шарик
Релиз от
источник
ARRU & Netlab AnimaGroup & RenmeiRei & REBUILD ARRU
А вы ничего не забыли?
наверх

Последние поступления