ARRU





Seiken no Blacksmith
Божественный Кузнец (2009)[01-12 из 12][BDRip][HWP]   Bookmark


Скачать вход / регистрация
Тема на форуме Обсудить аниме (комментариев: 148)
Обсуждение раздачи (комментариев: 14)
Смотреть онлайн
ОписаниеSeiken no Blacksmith / Божественный Кузнец (2009)[01-12 из 12][BDRip][HWP]
Оригинальное название: ブラックスミス
Английское название: Seiken no Blacksmith
Русское название: Божественный Кузнец

Страна: Япония
Жанр: приключения, фэнтези
Год выхода: 2009
Колличество серий: 12
Продолжительность: 25 мин
Студия:
Режиссёр: Хидака Масамицу

Описание:
44 года прошло после окончания "Войны договора". Во время ее впервые был применен так называемый "Дьявольский договор" - ритуал, позволяющий превращать людей в демонов. Множество людей на войне было принесено в жертву, чтобы быть использованными в военных целях. И даже после окончания войны многие из них разгуливают по миру. Поэтому ныне этот ритуал строжайше запрещен. Наша история начинается с того момента как Сесили Кэмбел, дочь благородного дворянина, вступает в ряды рыцарей. В наследство от отца ей достается старый меч, и она ищет кузнеца, который бы смог его починить. Однажды, когда Сесили патрулировала улицы, на нее нападает один из людей, подвергшийся Дьявольскому договору. Не имеющую опыта в сражениях девушку спасает таинственный кузнец Люк Эйнсворс. Так начинаются их приключения.


Названия эпизодов - показать

01. Knight
02. Demon Contract -Valbanill-
03. Demon Sword -Sword-
04. Vow -Promise-
05. Bonds -Together-
06. Imperial Princess -Princess-
07. Family
08. Departure -Resolution-
09. Vestige -Lisa-
10. Lovers Suicide -Tragedy-
11. Truth
12. Blacksmith


Источник рипа: BD-Rip
Автор рипа\энкод: RACER RS
Тип видео: Без хардсаба
Контейнер: AVI
Видео: XviD 64 | 720 x 404 (16:9) | 23,976 fps | 1450 kbps ;

Аудио:
RUS: AC3 | 48000Hz | 256 Kbps | 2ch
JAP: AC3 | 48000Hz | 256 Kbps | 2ch
Субтитры: Ru - soft [ASS]и[SRT]

Озвучивание: sad_kit
Перевод: RX Team

MediaInfo: - показать

General
Complete name                            : I:\ARRU Rebuild\Seiken no Blacksmith [01-12 of 12] [BDRip][HWP] Animereactor\Seiken no Blacksmith 01 (Xvid 720 x 404 AC3x2) (Animereactor.ru & Anything group).avi
Format                                   : AVI
Format/Info                              : Audio Video Interleave
File size                                : 335 MiB
Duration                                 : 23mn 41s
Overall bit rate                         : 1 976 Kbps
Writing application                      : VirtualDubMod 1.5.10.2 (build 2540/release)
Writing library                          : VirtualDubMod build 2540/release

Video
ID                                       : 0
Format                                   : MPEG-4 Visual
Format profile                           : Advanced Simple@L5
Format settings, BVOP                    : 2
Format settings, QPel                    : No
Format settings, GMC                     : No warppoints
Format settings, Matrix                  : Default (H.263)
Codec ID                                 : XVID
Codec ID/Hint                            : XviD
Duration                                 : 23mn 41s
Bit rate                                 : 1 450 Kbps
Width                                    : 720 pixels
Height                                   : 404 pixels
Display aspect ratio                     : 16:9
Frame rate                               : 23.976 fps
Color space                              : YUV
Chroma subsampling                       : 4:2:0
Bit depth                                : 8 bits
Scan type                                : Progressive
Compression mode                         : Lossy
Bits/(Pixel*Frame)                       : 0.208
Stream size                              : 246 MiB (73%)
Writing library                          : XviD 64

Audio #1
ID                                       : 1
Format                                   : AC-3
Format/Info                              : Audio Coding 3
Mode extension                           : CM (complete main)
Codec ID                                 : 2000
Duration                                 : 23mn 41s
Bit rate mode                            : Constant
Bit rate                                 : 256 Kbps
Channel(s)                               : 2 channels
Channel positions                        : Front: L R
Sampling rate                            : 48.0 KHz
Bit depth                                : 16 bits
Compression mode                         : Lossy
Stream size                              : 43.4 MiB (13%)
Alignment                                : Split accross interleaves
Interleave, duration                     : 42 ms (1.00 video frame)
Interleave, preload duration             : 500 ms
Title                                    : sad kit [Russian]

Audio #2
ID                                       : 2
Format                                   : AC-3
Format/Info                              : Audio Coding 3
Mode extension                           : CM (complete main)
Codec ID                                 : 2000
Duration                                 : 23mn 41s
Bit rate mode                            : Constant
Bit rate                                 : 256 Kbps
Channel(s)                               : 2 channels
Channel positions                        : Front: L R
Sampling rate                            : 48.0 KHz
Bit depth                                : 16 bits
Compression mode                         : Lossy
Stream size                              : 43.4 MiB (13%)
Alignment                                : Split accross interleaves
Interleave, duration                     : 42 ms (1.00 video frame)
Interleave, preload duration             : 500 ms
Title                                    : Original [japanese]



Скриншоты: - показать




Дядя Шарик
Релиз от
источник
ARRU & Anything-Group & REBUILD ARRU   &   RACER_RS
А вы ничего не забыли?
наверх

Последние поступления