ARRU





Kannagi: Crazy Shrine Maidens
Каннаги: Девы святого дерева (2008)[1-13 из 13 + Special][Bonus][DVD-Rip][HWP]   Bookmark


Скачать вход / регистрация
Тема на форуме Обсудить аниме (комментариев: 58)
Обсуждение раздачи (комментариев: 119)
Смотреть онлайн
ОписаниеKannagi: Crazy Shrine Maidens / Каннаги: Девы святого дерева (2008)[1-13 из 13 + Special][Bonus][DVD-Rip][HWP]
Оригинальное название: かんなぎ
Английское название: Kannagi: Crazy Shrine Maidens
Русское название: Каннаги: Девы святого дерева
Страна: Япония
Год выпуска / период трансляции: c 04.10.2008 по 27.12.2008
Жанр: комедия, фэнтези
Категория: TV
Количество эпизодов: 13
Продолжительность: 25 мин
Студия:

Режиссёр: Ямамото Ютака
Снято по манге: Kannagi
Автор оригинала: Такэнаси Эри

Описание:
В детстве Дзин Микурия любил играть в старом синтоистском храме под вечнозеленой священной нагеей. Парень вырос, храм снесли, а дерево спилили. Художник-любитель Дзин, тонко чувствующий природу и не чуждый сверхъестественного, выпросил кусок священного дерева, чтобы вырезать из него статую девушки. Обняв свое творение, Дзин вознес горячую молитву богам, прося их простить людей за неразумие. Разумеется, произошло чудо, и кусок дерева превратился в красавицу по имени Наги – земное воплощение богини-хранительницы окрестных земель. Освоившись в новом мире, Наги поняла, что силы у нее не те и исполнять свои обязанности придется с активной помощью нового знакомого. Погрузившись в медитацию по поводу стратегии борьбы со злом, богиня не заметила, как заскучавший хозяин включил ТВ, и, как на грех, попал на аниме жанра «махо-седзе». Знамение судьбы, понимаете ли… Отныне Наги решила вести жизнь обычной школьницы, а в промежутках бороться за любовь и справедливость на вверенной территории, назначив бедного Дзина на роль местного Мамору.

Увидев, как Наги развлекается, решила воплотиться и ее младшая сестренка Занге-тян, богиня соседних земель. Только она смотрела другое аниме, в итоге решив стать в мире смертных тайной поп-звездой. Познакомившись с этим улетным комедийно-пародийным сериалом от режиссера «Канон-2006» и «Судзумии», вы поймете, что он далеко ушел от классического сюжета «Пигмалиона»!
© Hollow


Названия эпизодов:
01. The Shrine Girl
02. Gyokuon Attack!
03. The School's Goddess
04. Sisters
05. Discovery! Love the Dining Table God
06. Nagi-tan`s Heart-stopping Craziness
07. Cutie Big Pinch! The Super Spicy Hitsumabushi Strikes Back
08. The Hill of Straying Storm
09. Embarassing School Comedy
10. Mike Takako, the Karaoke Warrior
11. Yet, Uncertain
12. Truly Ephermal
13. Jin, Lovestruck

DVD-спэшл:
14. If You Are A Shrine Maiden... (27.05.2009)
+ Bonus


Источник рипа: DVD-Rip
Автор рипа\энкод: Renmei Rei
Тип видео: Без хардсаба
Контейнер: AVI
Видео: XviD (Build 64) | 720 x 404 pixels | 29,970 fps | ~1100-1600 kbps ;

Аудио:
RUS: mp3 | 48.0 KHz | stereo | 192 Kbps;
JAP:  AC-3 | 48.0 KHz | stereo | 256 Kbps

Субтитры: Ru - soft [SRT, SSA][Advantage]
Перевод/Оформление: Matador
Озвучивание: Valkrist & Keneretta

Внимание: замена русской дорожки в восьмом эпизоде. прошу прощение за неудобства.

MediaInfo: - показать
Общее
Полное имя                               : R:\Video\HWP\Kannagi Crazy Shrine Maidens [1-13 of 13 + special][Bonus][DVD-Rip][HWP][AnimeReactor.ru]\Kannagi Crazy Shrine Maidens [01 of 13][DVDRip][720 x 404  XviD mp3 AC3][MCA & AnimeReactor.ru].avi
Формат                                   : AVI
Формат/Информация                        : Audio Video Interleave
Размер файла                             : 334 Мбайт
Продолжительность                        : 23 м.
Общий поток                              : 1973 Кбит/сек
Программа кодирования                    : VirtualDubModRus 1.5.10.2 (build 2542/release)
Библиотека кодирования                   : VirtualDubMod build 2542/release

Видео
Идентификатор                            : 0
Формат                                   : MPEG-4 Visual
Профиль формата                          : Advanced Simple@L5
Параметр BVOP формата                    : 2
Параметр QPel формата                    : Нет
Параметр GMC формата                     : Без точки перехода
Параметр матрицы формата                 : Default (H.263)
Идентификатор кодека                     : XVID
Идентификатор кодека/Подсказка           : XviD
Продолжительность                        : 23 м.
Битрейт                                  : 1508 Кбит/сек
Ширина                                   : 720 пикселей
Высота                                   : 404 пикселя
Соотношение сторон                       : 16:9
Частота кадров                           : 29,970 кадров/сек
Цветовое пространство                    : YUV
Субдискретизация насыщенности            : 4:2:0
Битовая глубина                          : 8 бит
Тип развёртки                            : Прогрессивная
Метод сжатия                             : С потерями
Бит/(Пиксели*Кадры)                      : 0.173
Размер потока                            : 255 Мбайт (76%)
Библиотека кодирования                   : XviD 64

Аудио #1
Идентификатор                            : 1
Формат                                   : MPEG Audio
Версия формата                           : Version 1
Профиль формата                          : Layer 3
Режим                                    : Joint stereo
Идентификатор кодека                     : 55
Идентификатор кодека/Подсказка           : MP3
Продолжительность                        : 23 м.
Вид битрейта                             : Постоянный
Битрейт                                  : 192 Кбит/сек
Каналы                                   : 2 канала
Частота                                  : 48,0 КГц
Метод сжатия                             : С потерями
Размер потока                            : 32,5 Мбайт (10%)
Выравнивание                             : Соединение по промежуткам
Продолжительность промежутка             : 33  мс. (1,00 видеокадр)
Время предзагрузки промежутка            : 504  мс.
Заголовок                                : Russian [Valkrist & Keneretta]

Аудио #2
Идентификатор                            : 2
Формат                                   : AC-3
Формат/Информация                        : Audio Coding 3
Расширение режима                        : CM (complete main)
Идентификатор кодека                     : 2000
Продолжительность                        : 23 м.
Вид битрейта                             : Постоянный
Битрейт                                  : 256 Кбит/сек
Каналы                                   : 2 канала
Расположение каналов                     : Front: L R
Частота                                  : 48,0 КГц
Битовая глубина                          : 16 бит
Метод сжатия                             : С потерями
Размер потока                            : 43,4 Мбайт (13%)
Выравнивание                             : Разделение по промежуткам
Продолжительность промежутка             : 33  мс. (1,00 видеокадр)
Время предзагрузки промежутка            : 500  мс.
Заголовок                                : Japanese [Original]


Скриншоты: - показать


Дядя Шарик
Релиз от
источник
ARRU & Moscow City Animegroup - MCA & ADVANTAGE & REBUILD ARRU
А вы ничего не забыли?
наверх

Последние поступления