ARRU





Blassreiter
Блассрейтер (2008)[01-24 из 24][DVDRip]   Bookmark


Скачать вход / регистрация
Тема на форуме Обсудить аниме (комментариев: 175)
Обсуждение раздачи (комментариев: 117)
Смотреть онлайн
ОписаниеBlassreiter / Блассрейтер (2008)[01-24 из 24][DVDRip]
Оригинальное название: ブラスレイター
Английское название: Blassreiter
Русское название: Блассрейтер
Страна: Япония
Период трансляции: c 06.04.2008 по 28.09.2008
Жанр: фантастикаКатегория: TV
Количество эпизодов: 24
Продолжительность: 25 мин.
Режиссёр: Итано Итиро  (Ганц,  Angel Cop)
Сценарий: Уробути Гэн, Кобаяси Ясуко (Тетрадь Смерти ТВ, Клинок Ведьм, Клеймор)
Студия:


Описание:
  В альтернативной Германии начала XXI века происходят ужасные вещи: там ни с того, ни с сего начали оживать трупы – да не просто оживать, а приплавлять к себе различные предметы и устройства и становиться чудовищными монстрами-убийцами: бронированными, тюнингованными, на колесах! Для борьбы со «сплавами» был организован КСАТ. Мотобригады КСАТа охотятся за одержимыми, истребляют мутантов и собирают информацию об их возникновении и поведении, надеясь проникнуть в зловещую тайну «сплавов».
  После появления одного из «сплавов» на мототреке Герд Френцен, знаменитый гонщик, стал калекой. Это оказалось чудовищным ударом само по себе, а тут еще от Герда ушла любимая девушка, и команда поторопилась списать спортсмена-инвалида... поэтому загадочной женщине-врачу, предложившей Герду некий препарат, который «пока находится в стадии разработки, но может дать радикальное улучшение, невзирая на побочные эффекты», не пришлось долго уговаривать бывшего чемпиона...
© Анастасия Розанова

Названия эпизодов:
01. Prelude to Despair
02. The Cost of Honour
03. Epidemic Infection
04. Siege Network
05. Neglected Person
06. The Devil's Pitiful Song
07. The Extremity of Hatred
08. I Am Not A Coward Anymore
09. Value of Power, Meaning of Power
10. Internal Conspiracy
11. Prelude to the Apocolypse
12. Judgment Day
13. Distant Memory
14. The Saint`s Choice
15. Millenary Knights of God
16. Reunion
17. Bellow of the Beast
18. The Fourth Revelation
19. Feelings from the Past
20. Underground Military Forces
21. A Pale Horseman
22. Drifting Hearts
23. Scorched Earth
24. Promised Land


Источник рипа: DVD
Автор рипа\энкод: не известно
Тип видео: Без хардсаба
Контейнер: mkv
Видео: AVC/x264 | 720 x 480 пикселей | 23,976 кадра/сек | ~2700 Кбит/сек ;

Аудио:
RUS1: AAC | 44.1 КГц | стерео | 192 Кбит/сек; (многоголосый закадровый 2х2)
RUS2: mp3 | 44.1 КГц | стерео | 128 Кбит/сек; (одноголосный закадровый - Cuba 77)
JAP:  AC-3 | 48.0 КГц | 6 каналов | 448 Кбит/сек (Оригинал)

Субтитры: русские\встроенные [SSA]
Перевод: не известно
Тайминг подгон русской дорожки 2х2 - Renmei Rei

MediaInfo: - показать
Общее
Уникальный идентификатор                 : 196040947647516381217811949454124007981 (0x937C1CF6BEE4A144975861C0D886422D)
Полное имя                               : R:\Video\ARRU Upload\Blassreiter (TV)[1-24 of 24][DVDRip][AnimeReactor.RU]\Blassreiter [01 of 24][DVDRip][720x480 x264 AAC AC3x2][AnimeReactor.RU].mkv
Формат                                   : Matroska
Версия формата                           : Version 2
Размер файла                             : 487 Мбайт
Продолжительность                        : 23 м.
Общий поток                              : 2882 Кбит/сек
Дата кодирования                         : UTC 2012-06-14 06:58:18
Программа кодирования                    : mkvmerge v5.5.0 ('Healer' built on Apr  6 2012 21:43:24
Библиотека кодирования                   : libebml v1.2.3 + libmatroska v1.3.0

Видео
Идентификатор                            : 1
Формат                                   : AVC
Формат/Информация                        : Advanced Video Codec
Профиль формата                          : High@L3.0
Параметр CABAC формата                   : Да
Параметр ReFrames формата                : 5 кадров
Режим смешивания                         : Header stripping
Идентификатор кодека                     : V_MPEG4/ISO/AVC
Номинальный битрейт                      : 2634 Кбит/сек
Ширина                                   : 720 пикселей
Высота                                   : 480 пикселей
Соотношение сторон                       : 16:9
Соотношение сторон в оригинале           : 3:2
Стандарт вещания                         : NTSC
Цветовое пространство                    : YUV
Субдискретизация насыщенности            : 4:2:0
Битовая глубина                          : 8 бит
Тип развёртки                            : Прогрессивная
Бит/(Пиксели*Кадры)                      : 0.254
Библиотека кодирования                   : x264 core 68 r1183M f21daff
Настройки программы                      : cabac=1 / ref=5 / deblock=1:1:1 / analyse=0x3:0x133 / me=tesa / subme=9 / psy_rd=1.0:0.0 / mixed_ref=1 / me_range=16 / chroma_me=1 / trellis=1 / 8x8dct=1 / cqm=2 / deadzone=21,11 / chroma_qp_offset=-2 / threads=1 / nr=0 / decimate=0 / mbaff=0 / bframes=1 / b_pyramid=0 / b_adapt=1 / b_bias=0 / direct=3 / wpredb=1 / keyint=250 / keyint_min=25 / scenecut=40 / rc=2pass / bitrate=2634 / ratetol=1.0 / qcomp=0.60 / qpmin=10 / qpmax=51 / qpstep=4 / cplxblur=20.0 / qblur=0.5 / ip_ratio=1.40 / pb_ratio=1.30 / aq=1:1.00
Default                                  : Да
Forced                                   : Нет

Аудио #1
Идентификатор                            : 2
Формат                                   : AAC
Формат/Информация                        : Advanced Audio Codec
Профиль формата                          : HE-AAC / LC
Идентификатор кодека                     : A_AAC
Продолжительность                        : 23 м.
Каналы                                   : 2 канала
Расположение каналов                     : Front: L R
Частота                                  : 88,2 КГц / 44,1 КГц
Метод сжатия                             : С потерями
Заголовок                                : 2x2
Язык                                     : Russian
Default                                  : Да
Forced                                   : Нет

Аудио #2
Идентификатор                            : 3
Формат                                   : MPEG Audio
Версия формата                           : Version 1
Профиль формата                          : Layer 3
Режим                                    : Joint stereo
Расширение режима                        : MS Stereo
Режим смешивания                         : Header stripping
Идентификатор кодека                     : A_MPEG/L3
Идентификатор кодека/Подсказка           : MP3
Продолжительность                        : 23 м.
Вид битрейта                             : Постоянный
Битрейт                                  : 128 Кбит/сек
Каналы                                   : 2 канала
Частота                                  : 44,1 КГц
Метод сжатия                             : С потерями
Размер потока                            : 21,6 Мбайт (4%)
Заголовок                                : Cuba77
Язык                                     : Russian
Default                                  : Нет
Forced                                   : Нет

Аудио #3
Идентификатор                            : 4
Формат                                   : AC-3
Формат/Информация                        : Audio Coding 3
Расширение режима                        : CM (complete main)
Параметр Endianness формата              : Big
Режим смешивания                         : Header stripping
Идентификатор кодека                     : A_AC3
Продолжительность                        : 23 м.
Вид битрейта                             : Постоянный
Битрейт                                  : 448 Кбит/сек
Каналы                                   : 6 каналов
Расположение каналов                     : Front: L C R, Side: L R, LFE
Частота                                  : 48,0 КГц
Битовая глубина                          : 16 бит
Метод сжатия                             : С потерями
Размер потока                            : 75,7 Мбайт (16%)
Заголовок                                : Original
Язык                                     : Japanese
Default                                  : Нет
Forced                                   : Нет

Текст
Идентификатор                            : 5
Формат                                   : ASS
Идентификатор кодека                     : S_TEXT/ASS
Идентификатор кодека/Информация          : Advanced Sub Station Alpha
Метод сжатия                             : Без потерь
Язык                                     : Russian
Default                                  : Да
Forced                                   : Нет


Скриншоты: - показать
Дядя Шарик
Релиз от
источник
ARRU & Netlab AnimaGroup & Cuba77 & RenmeiRei & REBUILD ARRU
А вы ничего не забыли?
наверх

Последние поступления