ARRU





Хроника Крыльев: Принцесса страны птичьей клетки
Tsubasa Chronicle: Princess of Birdcage Kingdom [BD-Rip][HWP]   Bookmark


Скачать вход / регистрация
Тема на форуме Обсудить фильм (комментариев: 116)
Обсуждение раздачи (комментариев: 7)
ОписаниеХроника Крыльев: Принцесса страны птичьей клетки / Tsubasa Chronicle: Princess of Birdcage Kingdom [BD-Rip][HWP]
Оригинальное название: Tsubasa Chronicle: Tori Kago no Kuni no Himegimi
Английское название: Tsubasa Reservoir Chronicle The Movie: Princess of the Birdcage Kingdom
Русское название: Хроника Крыльев: Принцесса страны птичьей клетки

Страна: Япония
Жанр: приключения, романтика, фэнтези
Год выхода: 2005
Продолжительность: 35 мин
Студия: Production I.G.
Режиссёр: Кавасаки Ицуро
Автор оригинала: студия CLAMP
Автор сценария: Фудзисаку Дзюнъити

Описание:
Короткометражный фильм, созданный той же студией, которая занималась аниме xxxHolic. В отличие от своих коллег из прости господи студии БиТрейн которой я ежевечерне посылаю лучи ненависти, они сохранили великолепную рисовку манги, ну и собственно ни на кадр не отступили от экранизируемой главы. Однако слишком явно видна нехватка бюджета: при великолепной анимации, музыкальному сопровождению и игре сейю все так и кричит "нам не хватило бюджета на полноценный полуторачасовой фильм!". Поэтому создается странное впечатление - при шикарном технически-визуальном исполнении, удручает общая обрывочность повествования. Ведь одно дело давать волю воображению читая великолепную мангу от клампа, другое дело смотреть за этим на экране. Фильму катастрофически не хватает деталей, описаний, истории мира, в который попали персонажи в конце концов! В итоге мы имеем конфетку, но конфетку, на которую кто-то случайно наступил сапогом, так что она стала не очень съедобной.  Тем не менее, если отбросить все предрассудки, наслаждение можно получить хотя бы от баталий между куропоном фаем и очередной толпой вражин, фансервисом на тему Сакуры и Шаорана, да пасхалкой в виде очередного двойника принцессы Томоё. И не следует забывать великолепно отрисованные задники (закроем глаза на местами отвратительно вылезающее 3-Д. Но скорее всего это у них из-за спешки так получилось), а так же великолепным качеством звука, не идущем ни в какое сравнение с сериалом.

Ах, да... Пара слов о сюжете.. Да какой, сюжет, обычный филлерный мир, где герои как всегда ищут перо. В общем - кабы не претензия на масштабность проекта, вполне бы могло стать 27й серией первого сезона =)

Источник рипа: BD-Rip
Автор рипа\энкод\сведение дорожек: RACER RS
Тип видео: Без хардсаба
Контейнер: AVI
Видео: XviD 64 | 720 x 404 (16:9) | 23,976 fps | 1500 kbps ;

Аудио:
RUS: AC3 | 48000Hz | 256 Kbps | 2ch Little_Polka & Koyl Van
JAP: AC3 | 48000Hz | 256 Kbps | 2ch Original
Субтитры: Ru - soft [ASS]и[SRT]


Озвучивание: Polka & Koyl Van
Перевод: unvasily

MediaInfo: - показать

General
Complete name                            : I:\ARRU Rebuild\Tsubasa Chronicle  The Movie [BDRip][HWP] Animereactor.ru\Tsubasa Chronicle Princess of Birdcage Kingdom (XviD 720 x 404 AC3x2) [Polka Production & AnimeReactor].avi
Format                                   : AVI
Format/Info                              : Audio Video Interleave
File size                                : 500 MiB
Duration                                 : 34mn 30s
Overall bit rate                         : 2 026 Kbps
Writing application                      : VirtualDubMod 1.5.10.2 (build 2540/release)
Writing library                          : VirtualDubMod build 2540/release

Video
ID                                       : 0
Format                                   : MPEG-4 Visual
Format profile                           : Advanced Simple@L5
Format settings, BVOP                    : 2
Format settings, QPel                    : No
Format settings, GMC                     : No warppoints
Format settings, Matrix                  : Default (H.263)
Codec ID                                 : XVID
Codec ID/Hint                            : XviD
Duration                                 : 34mn 30s
Bit rate                                 : 1 500 Kbps
Width                                    : 720 pixels
Height                                   : 404 pixels
Display aspect ratio                     : 16:9
Frame rate                               : 23.976 fps
Color space                              : YUV
Chroma subsampling                       : 4:2:0
Bit depth                                : 8 bits
Scan type                                : Progressive
Compression mode                         : Lossy
Bits/(Pixel*Frame)                       : 0.215
Stream size                              : 370 MiB (74%)
Writing library                          : XviD 64

Audio #1
ID                                       : 1
Format                                   : AC-3
Format/Info                              : Audio Coding 3
Mode extension                           : CM (complete main)
Codec ID                                 : 2000
Duration                                 : 34mn 30s
Bit rate mode                            : Constant
Bit rate                                 : 256 Kbps
Channel(s)                               : 2 channels
Channel positions                        : Front: L R
Sampling rate                            : 48.0 KHz
Bit depth                                : 16 bits
Compression mode                         : Lossy
Stream size                              : 63.2 MiB (13%)
Alignment                                : Split accross interleaves
Interleave, duration                     : 42 ms (1.00 video frame)
Interleave, preload duration             : 500 ms
Title                                    : Polka Production and AnimeReactor

Audio #2
ID                                       : 2
Format                                   : AC-3
Format/Info                              : Audio Coding 3
Mode extension                           : CM (complete main)
Codec ID                                 : 2000
Duration                                 : 34mn 30s
Bit rate mode                            : Constant
Bit rate                                 : 256 Kbps
Channel(s)                               : 2 channels
Channel positions                        : Front: L R
Sampling rate                            : 48.0 KHz
Bit depth                                : 16 bits
Compression mode                         : Lossy
Stream size                              : 63.2 MiB (13%)
Alignment                                : Split accross interleaves
Interleave, duration                     : 42 ms (1.00 video frame)
Interleave, preload duration             : 500 ms
Title                                    : Original [Japanese]


Скриншоты: - показать




Дядя Шарик
Релиз от
источник
ARRU & Polka Production & REBUILD ARRU   &   RACER_RS
А вы ничего не забыли?
наверх

Последние поступления