ARRU





Tetsuwan Birdy Decode:02
Могучая Берди (TV2)(2009)[01-12 из 12][DVD-Rip]   Bookmark


Скачать вход / регистрация
Тема на форуме Обсудить аниме (комментариев: 18)
Обсуждение раздачи (комментариев: 11)
ОписаниеTetsuwan Birdy Decode:02 / Могучая Берди (TV2)(2009)[01-12 из 12][DVD-Rip]
Оригинальное название: 鉄腕バーディー DECODE:02
Английское название: Tetsuwan Birdy Decode:02
Русское название: Могучая Берди 2

Страна: Япония
Год выпуска / период трансляции:  c 10.01.2009 по 28.03.2009
Жанр: приключения, фантастика
Количество эпизодов ТВ: 12
Продолжительность: 25 мин

Студия:
Режиссёр:  Аканэ Кадзуки
Автор оригинала: Юки Масами


Описание:
Однажды старшеклассник Цутому Сэнкава оказался не в то время и не в том месте, после чего целый сезон делил тело с красивой, сильной и решительной девушкой Бёрди, даром что инопланетянкой. А когда его водворили в родное тело, восстановленное чудо-технологиями, сразу заскучал и стал думать, как попасть обратно. Благо, вскоре представился случай пожертвовать собой ради спасения мира, и цикл начался заново. Так что пришлось Бёрди, сотруднице Галактической Полиции, остаться на Земле под старой личиной поп-идола Ариты Сион.

Вот только горевать Цутому и Бёрди некогда – на планету прибывает группа беглых заговорщиков, вовсе не желающих мотать срок за использование в первом сезоне абсолютного биологического оружия. Да и сама Земля понемногу превращается в какую-то галактическую Одессу, где бок о бок живут и проворачивают дела бандиты и нелегальные иммигранты, террористы и спецагенты, политики и религиозные фанатики всех известных и неизвестных космических рас. Чем закончится очередное расследование? Обретет ли Цутому потерянную любовь? На чьей стороне играют друзья детства Бёрди? Скажем одно – в ожидании ответов скучать не придется!

© Hollow, World Art

Названия эпизодов:
01. After All
02. Simple Twist of Fate
03. Somewhere in Time
04. Tears Are Not Enough
05. Before It's Too Late
06. A Prisoner of the Past
07. We Will Meet Again
08. Falling in Love with Love
09. Space,Time,and You
10. It Never Entered My Mind
11. Both Sides Now
12. Before Long


Качество рипа: DVDRip
Автор рипа: Henshin
Тип видео: Без хардсаба
Контейнер: mkv
Видео: AVC (x264) | 848x480 pixels | 23.976 fps | ~1500Kbps
 
Аудио:
RUS: MP3 | 48000Hz | ~128 Kbps | 2ch
JAP: Vorbis | 48000Hz | ~224 Kbps | 2ch

Озвучивание:  Marie & Veler (за синхронизацию спасибо artyfox)
Перевод:  Lost in heaven & suDi@

MediaInfo: - показать

Общее
Формат                           : Matroska
Версия формата                   : Version 2
Размер файла                     : 310 Мбайт
Продолжительность                : 23 м.
Режим общего битрейта            : Переменный
Общий поток                      : 1828 Кбит/сек
Дата кодирования                 : UTC 2012-06-10 05:24:18
Программа кодирования            : mkvmerge v3.4.0 сборка от May 15 2010 09:38:20
Библиотека кодирования           : libebml v0.8.0 + libmatroska v0.9.0

Видео
Идентификатор                    : 1
Формат                           : AVC
Формат/Информация                : Advanced Video Codec
Профиль формата                  : High@L4.0
Параметр CABAC формата           : Да
Параметр ReFrames формата        : 16 кадров
Идентификатор кодека             : V_MPEG4/ISO/AVC
Продолжительность                : 23 м.
Битрейт                          : 1500 Кбит/сек
Ширина                           : 848 пикселей
Высота                           : 480 пикселей
Соотношение сторон               : 16:9
Соотношение сторон в оригинале   : 16:9
Режим частоты кадров             : Переменный
Частота кадров                   : 23,976 кадра/сек
Цветовое пространство            : YUV
Субдискретизация насыщенности    : 4:2:0
Битовая глубина                  : 8 бит
Тип развёртки                    : Прогрессивная
Бит/(Пиксели*Кадры)              : 0.154
Размер потока                    : 244 Мбайт (79%)
Заголовок                        : Henshin
Библиотека кодирования           : x264 core 88 r1471 1144615
Язык                             : Japanese
Default                          : Да
Forced                           : Нет

Аудио #1
Идентификатор                    : 2
Формат                           : MPEG Audio
Версия формата                   : Version 1
Профиль формата                  : Layer 3
Режим                            : Joint stereo
Расширение режима                : MS Stereo
Идентификатор кодека             : A_MPEG/L3
Идентификатор кодека/Подсказка   : MP3
Продолжительность                : 23 м.
Вид битрейта                     : Постоянный
Битрейт                          : 128 Кбит/сек
Каналы                           : 2 канала
Частота                          : 48,0 КГц
Метод сжатия                     : С потерями
Размер потока                    : 21,7 Мбайт (7%)
Заголовок                        : Marie & Veler
Язык                             : Russian
Default                          : Да
Forced                           : Нет

Аудио #2
Идентификатор                    : 3
Формат                           : Vorbis
Параметр Floor формата           : 1
Идентификатор кодека             : A_VORBIS
Продолжительность                : 23 м.
Вид битрейта                     : Переменный
Битрейт                          : 224 Кбит/сек
Каналы                           : 2 канала
Частота                          : 48,0 КГц
Метод сжатия                     : С потерями
Размер потока                    : 38,0 Мбайт (12%)
Заголовок                        : Original
Библиотека кодирования           : aoTuV b5d  (UTC 2009-03-01)
Язык                             : Japanese
Default                          : Нет
Forced                           : Нет

Текст
Идентификатор                    : 4
Формат                           : ASS
Идентификатор кодека             : S_TEXT/ASS
Идентификатор кодека/Информация  : Advanced Sub Station Alpha
Метод сжатия                     : Без потерь
Заголовок                        : Lost in heaven & suDi@
Язык                             : Russian
Default                          : Нет
Forced                           : Нет


Скриншоты: - показать




От себя:
Данный релиз был предоставлен товарищем Khorad-Nur, за что ему огромное спасибо.
Дядя Шарик
Релиз от
источник
ARRU & - Найдено в сети & REBUILD ARRU
А вы ничего не забыли?
наверх

Последние поступления