ARRU





Синий Экзорцист
Ao no Exorcist (TV)(2011) [01-25 из 25+SP] [BDRip] [HWP]   Bookmark


Скачать вход / регистрация
Тема на форуме Обсудить аниме (комментариев: 119)
Обсуждение раздачи (комментариев: 3)
ОписаниеСиний Экзорцист / Ao no Exorcist (TV)(2011) [01-25 из 25+SP] [BDRip] [HWP]
Оригинальное название: Ao no Exorcist
Английское название: Blue Exorcist
Русское название: Синий Экзорцист

Страна: Япония
Жанр: приключения, мистика
Год выхода: 2011
Колличество серий: 25 + Special
Продолжительность: 25 мин
Студия: A-1
Режиссёр: Окамура Тэнсай
Автор оригинала: Като Кадзуэ

Описание:
Рин Окимура и его брат Юкио — сироты, росшие в храме священника и экзорциста Фудзимото. Рин — парень неплохой, но вспыльчивый, придурковатый и постоянно ввязывающийся в драки. Юкио же наоборот, умный, прилежный и мечтающий стать врачом (и лечение извечных ссадин брата ему в этом лишь помогает).
Но в реальности разница между ними куда сильнее: на самом деле Рин — полудемон, и не просто полудемон, а сын самого Сатаны. И когда, вопреки предосторожностям Фудзимото, силы Рина прорезаются наружу, папенька находит его и пытается забрать домой, чтобы в дальнейшем использовать сына в качестве плацдарма для захвата нашего измерения. Рину удаётся избежать сей плачевной участи, но дорогой ценой — Фудзимото гибнет, защищая своего приёмного сына. И тогда Рин решает стать экзорцистом и отомстить Сатане, для чего устраивается вместе с Юкио в специальную закрытую школу.

© Ulqiorra

Названия эпизодов - показать

01. Demons Live in the Human Heart
02. Gehenna Gate
03. Brothers
04. Garden of Amahara
05. Child of the Cursed Temple
06. The Phantom Cook
07. Flock of Plovers
08. Now a Certain Man was Sick
09. Memories
10. Cat Sith
11. Deep-Sea Demon
12. Tag
13. Proof
14. Fun Camp
15. Bug Trap
16. Gamble
17. Temptation
18. Gale
19. A Day When Nothing Happens
20. Mask
21. Secret Garden
22. Demon Hunt
23. Truth  
24. Satan`s Offspring
25. Time, Stop

001. Kuro`s Trip Away from Home


Источник рипа: BD-Rip
Автор рипа\энкод: RACER RS
Тип видео: Без хардсаба
Контейнер: AVI
Видео: XviD 64 | 720 x 404 (16:9) | 23,976 fps | 1450 kbps ;

Аудио:
RUS: AC3 | 48000Hz | 192 Kbps | 2ch
JAP: AC3 | 48000Hz | 256 Kbps | 2ch
Субтитры: Ru - soft [ASS]и[SRT]

Озвучивание: Ryc99
Перевод: Advantage

MediaInfo: - показать

General
Complete name                            : I:\ARRU Rebuild\Ao no Exorcist TV [01-25 of 25+SP] [BDRip][HWP] Animereactor\Ao_no_Exorcist_TV_[01_of_25]_(XviD 720 x 404 AC3x2)_[Ryc99_&_Animereactor].avi
Format                                   : AVI
Format/Info                              : Audio Video Interleave
File size                                : 349 MiB
Duration                                 : 25mn 30s
Overall bit rate                         : 1 912 Kbps
Writing application                      : VirtualDubMod 1.5.10.2 (build 2540/release)
Writing library                          : VirtualDubMod build 2540/release

Video
ID                                       : 0
Format                                   : MPEG-4 Visual
Format profile                           : Advanced Simple@L5
Format settings, BVOP                    : 2
Format settings, QPel                    : No
Format settings, GMC                     : No warppoints
Format settings, Matrix                  : Default (H.263)
Codec ID                                 : XVID
Codec ID/Hint                            : XviD
Duration                                 : 25mn 30s
Bit rate                                 : 1 450 Kbps
Width                                    : 720 pixels
Height                                   : 404 pixels
Display aspect ratio                     : 16:9
Frame rate                               : 23.976 fps
Color space                              : YUV
Chroma subsampling                       : 4:2:0
Bit depth                                : 8 bits
Scan type                                : Progressive
Compression mode                         : Lossy
Bits/(Pixel*Frame)                       : 0.208
Stream size                              : 265 MiB (76%)
Writing library                          : XviD 64

Audio #1
ID                                       : 1
Format                                   : AC-3
Format/Info                              : Audio Coding 3
Mode extension                           : CM (complete main)
Codec ID                                 : 2000
Duration                                 : 25mn 30s
Bit rate mode                            : Constant
Bit rate                                 : 192 Kbps
Channel(s)                               : 2 channels
Channel positions                        : Front: L R
Sampling rate                            : 48.0 KHz
Bit depth                                : 16 bits
Compression mode                         : Lossy
Stream size                              : 35.0 MiB (10%)
Alignment                                : Split accross interleaves
Interleave, duration                     : 42 ms (1.00 video frame)
Interleave, preload duration             : 500 ms
Title                                    : Ryc99 [Russian]

Audio #2
ID                                       : 2
Format                                   : AC-3
Format/Info                              : Audio Coding 3
Mode extension                           : CM (complete main)
Codec ID                                 : 2000
Duration                                 : 25mn 30s
Bit rate mode                            : Constant
Bit rate                                 : 256 Kbps
Channel(s)                               : 2 channels
Channel positions                        : Front: L R
Sampling rate                            : 48.0 KHz
Bit depth                                : 16 bits
Compression mode                         : Lossy
Stream size                              : 46.7 MiB (13%)
Alignment                                : Split accross interleaves
Interleave, duration                     : 42 ms (1.00 video frame)
Interleave, preload duration             : 500 ms
Title                                    : Original [Japanese]


Скриншоты: - показать




Дядя Шарик
Релиз от
источник
ARRU & REBUILD ARRU & Ryc99   &   RACER_RS
А вы ничего не забыли?
наверх

Последние поступления