ARRU





Elfen Lied
Эльфийская песнь (TV)(2004)[01-13 из 13 + Special][DVD-Rip]   Bookmark


Скачать вход / регистрация
Тема на форуме Обсудить аниме (комментариев: 1706)
Обсуждение раздачи (комментариев: 98)
Смотреть онлайн
ОписаниеElfen Lied / Эльфийская песнь (TV)(2004)[01-13 из 13 + Special][DVD-Rip]
Оригинальное название: エルフェンリート
Английское название: Elfen Lied
Русское название: Эльфийская песнь

Страна: Япония
Год выпуска / период трансляции:  c 23.07.2004 по 17.10.2004
Жанр: драма, фантастика, ужасы, эччи
Количество эпизодов ТВ: 13
Продолжительность: 25 мин
Количество эпизодов Special: 1
Продолжительность: 25 мин

Возрастное ограничение: 16+

Студия:
Режиссёр: Камбэ Мамору
Автор оригинала: Окамото Линн

Описание:
Кота (Kouta) после долгого отсутствия вернулся в приокеанский город, в котором родился и вырос, для учёбы в колледже, и его подруга детства Юка, с ранних лет неравнодушная к нему, устроила парню жильё в небольшой гостинице, пустующей в межсезонье, на условии, что тот будет за ней присматривать и прибирать комнаты. Когда вечером пара прогуливалась по пляжу, из воды к ним навстречу вышла нагая девушка с огненными волосами и маленькими рожками, которая не могла вымолвить ни единого слова, кроме трогательного "Ню!". Она выглядела столь беспомощной и невинной, что Кота отвёл незнакомку, которую они с Юкой так и прозвали Ню, к себе домой. Ребята даже не подозревали, что дали убежище смертельно опасной женской особи диклониуса Люси, по изуродованным трупам двух десятков охранников вырвавшейся из экспериментальной лаборатории и разыскиваемой полицией и спецназом с приказом стрелять на поражение.

Диклониусы - похожие на людей мутанты, считающиеся Божьими избранниками и способные уничтожить весь человеческий род. Кроме маленьких рожек, напоминающих ушки эльфов, они обладают быстрыми, как свет, многометровыми невидимыми руками (векторами), имеющими исполинскую силу, а также парапсихологическими способностями, которыми в состоянии остановить летящую пулю. Нетрудно понять, почему такие особи содержались под строжайшей охраной, но побег Люси был вдвойне опасен тем, что она, в отличие от других диклониусов, имела способность к репродукции, осуществляющейся передачей генов с помощью векторов.

При побеге из лаборатории, находящейся на крутом берегу океана, Люси получила снайперскую пулю в голову, но та не помешала ей уйти в воду. Правда, после этого у неё выявился странный феномен - раздвоение личности, когда умнейшее дьявольское отродье Люси вдруг сменилась трогательной очаровашкой Ню с разумом малолетнего ребёнка, чтобы не сказать слабоумной. Именно эта метаморфоза и сбила с толку ребят, которые приютили милую незнакомку, попав в водоворот невероятных событий. Ведь кроткая Ню может в любую минуту обернуться смертоносным демоном Люси...
World Art

Названия эпизодов:
01. Encounter
02.   Wipe Out
03.   Within Heart
04.   Meeting
05.   Reception
06.   Inner Feelings
07.   Chance Meeting
08.   The very beginning
09.   Reminiscence
10.   Suckling
10.5  In the passing rain (Special)
11.   Complication
12.   Quagmire
13.   No Return


Качество рипа: DVDRip
Автор рипа: Yurasyk
Тип видео: Без хардсаба
Контейнер: mkv
Видео: AVC (x264) | 1280x720 pixels | 23.976 fps | ~2200Kbps

Аудио:
RUS: AC3 | 48000Hz | ~380 Kbps | 6ch
JAP: AC3 | 48000Hz | ~450 Kbps | 6ch

Озвучивание:  MC Entertainment
Перевод:  MC Entertainment
Субтитры: Robin, Yellow Horror

MediaInfo: - показать

Общее
Формат                           : Matroska
Версия формата                   : Version 2
Размер файла                     : 561 Мбайт
Продолжительность                : 25 м.
Общий поток                      : 3109 Кбит/сек
Дата кодирования                 : UTC 2012-06-03 04:42:04
Программа кодирования            : mkvmerge v3.4.0 сборка от May 15 2010 09:38:20
Библиотека кодирования           : libebml v0.8.0 + libmatroska v0.9.0

Видео
Идентификатор                    : 1
Формат                           : AVC
Формат/Информация                : Advanced Video Codec
Профиль формата                  : High@L4.0
Параметр CABAC формата           : Да
Параметр ReFrames формата        : 9 кадров
Идентификатор кодека             : V_MPEG4/ISO/AVC
Продолжительность                : 25 м.
Битрейт                          : 2215 Кбит/сек
Ширина                           : 1280 пикселей
Высота                           : 720 пикселей
Соотношение сторон               : 16:9
Частота кадров                   : 29,970 кадров/сек
Частота кадров в оригинале       : 29,610 кадров/сек
Цветовое пространство            : YUV
Субдискретизация насыщенности    : 4:2:0
Битовая глубина                  : 8 бит
Тип развёртки                    : Прогрессивная
Бит/(Пиксели*Кадры)              : 0.080
Размер потока                    : 400 Мбайт (71%)
Заголовок                        : Yurasyk
Библиотека кодирования           : x264 core 115 r2008 4c552d8
Язык                             : Japanese
Default                          : Нет
Forced                           : Нет

Аудио #1
Идентификатор                    : 2
Формат                           : AC-3
Формат/Информация                : Audio Coding 3
Расширение режима                : CM (complete main)
Идентификатор кодека             : A_AC3
Продолжительность                : 25 м.
Вид битрейта                     : Постоянный
Битрейт                          : 384 Кбит/сек
Каналы                           : 6 каналов
Расположение каналов             : Front: L C R, Side: L R, LFE
Частота                          : 48,0 КГц
Битовая глубина                  : 16 бит
Метод сжатия                     : С потерями
Размер потока                    : 69,3 Мбайт (12%)
Заголовок                        : Professional
Язык                             : Russian
Default                          : Да
Forced                           : Нет

Аудио #2
Идентификатор                    : 3
Формат                           : AC-3
Формат/Информация                : Audio Coding 3
Расширение режима                : CM (complete main)
Идентификатор кодека             : A_AC3
Продолжительность                : 25 м.
Вид битрейта                     : Постоянный
Битрейт                          : 448 Кбит/сек
Каналы                           : 2 канала
Расположение каналов             : Front: L R
Частота                          : 48,0 КГц
Битовая глубина                  : 16 бит
Метод сжатия                     : С потерями
Размер потока                    : 80,8 Мбайт (14%)
Заголовок                        : Original
Язык                             : Japanese
Default                          : Нет
Forced                           : Нет

Текст
Идентификатор                    : 4
Формат                           : UTF-8
Идентификатор кодека             : S_TEXT/UTF8
Идентификатор кодека/Информация  : UTF-8 Plain Text
Заголовок                        : Robin, Yellow Horror
Язык                             : Russian
Default                          : Нет
Forced                           : Нет

Меню
00:00:00.000                     : :Chapter 1
00:01:30.000                     : :Chapter 2
00:13:22.000                     : :Chapter 3
00:23:00.000                     : :Chapter 4
00:24:30.000                     : :Chapter 5


Скриншоты: - показать




От себя:
Данный релиз был предоставлен товарищем Yurasyk, за что ему огромное спасибо.

НЕ ПРЕДНАЗНАЧЕН ДЛЯ МАЛЕНЬКИХ ДЕТЕЙ!
В сериале присутствует множество сцен жестокого насилия, да и психологически атмосфера этого аниме не рассчитана на малолетнего зрителя.

Дядя Шарик
Релиз от
источник
ARRU & - Найдено в сети & REBUILD ARRU
А вы ничего не забыли?
наверх

Последние поступления