ARRU





Seikon no Qwaser II
Адепт Святого знака (второй сезон)[01-12 из 12][BDRip][HWP]   Bookmark


Скачать вход / регистрация
Тема на форуме Обсудить аниме (комментариев: 267)
Обсуждение раздачи (комментариев: 42)
ОписаниеSeikon no Qwaser II / Адепт Святого знака (второй сезон)[01-12 из 12][BDRip][HWP]
Оригинальное название: 聖痕のクェイサー 女帝の肖像
Английское название: Seikon no Qwaser II
Русское название: Адепт Святого знака II / Квазер со стигматом II
Страна: Япония
Год выпуска / период трансляции: c 12.04.2011
Жанр: приключения, мистика, этти
Возрастное ограничение: +16
Количество эпизодов: 12 эп.
Продолжительность: 25 мин.
Режиссёр: Канэко Хираку
Сценарий: Уэдзу Макото
Студия:

Описание:
В далекой Японии есть все – даже православная гимназия Св. Михайлова, в которой и происходит действие сериала. С виду тихая частная школа становится ареной борьбы между «верными» и еретиками, что ищут чудотворную икону, якобы дающую ключ к величайшим загадкам мироздания. С обеих сторон в конфликте участвуют «квейзеры» - таинственные адепты алхимии, которые владеют каким-либо природным элементом и используют его в бою. И, что самое интересное, поддерживать силы боевые маги могут, лишь получая Сому – напиток, очень похожий на женское молоко, что чудесным образом появляется у местных школьниц…
Отступники быстро бы сделали свое черное дело, если бы не явившийся из заснеженной России Саша Хэлл – молодой адепт со стигматом в виде 8-конечного креста на лице. Объединившись с носительницей тайны Томо Яманобэ и ее подругой Мафую Орибэ, Александр начинает свой священный поход за очищение школы от зла. А если учесть, что главную союзницу героев зовут Тереза Берия, то врагам веры точно не позавидуешь!
© Hollow

Эпизоды:
01. The Lily Princess of Silver
02. The Location of the Magdalene
03. The Trap of Quartz
04. The Cage of Torns
05. The Witch`s Living Sacrifice
06. Reunion
07. Breast Divination of Madame Lily
08. The Beautiful Contender
09. The Exciting Founding
10. The Qwaser of Stigmata
11. A Night at the Iron Spring 2: Suck It and Be Surprised
12. Calm Before The Storm, And the Wheels of Fate Begin to Turn


Источник рипа: BD-Rip
Автор рипа\энкод: Renmei Rei
Тип видео: Без хардсаба
Контейнер: AVI
Видео: XviD (Build 64) | 720 x 404 пикселей | 23,976 кадра/сек | ~1500 Кбит/сек ;

Аудио:
RUS: AC-3 | 48.0 КГц | стерео | 256 Кбит/сек;
JAP:  AC-3 | 48.0 КГц | стерео | 256 Кбит/сек

Субтитры: русские\отдельно [SRT,SSA][Jenia aka Zub, Razmes, Treph, Chainsaws]
Перевод: Jenia aka Zub, Razmes, Treph, Chainsaws
Озвучивание: Jeferson
Техподдержка: Beonikol

MediaInfo: - показать
Общее
Полное имя                               : R:\Video\HWP\Seikon no Qwaser Jotei no Shouzou\Seikon no Qwaser Jotei no Shouzou II [01 of 12][BDRip][720x404 XviD AC3x2][JeFerSon & AnimeReactor.Ru].avi
Формат                                   : AVI
Формат/Информация                        : Audio Video Interleave
Размер файла                             : 343 Мбайт
Продолжительность                        : 23 м.
Общий поток                              : 2031 Кбит/сек
Программа кодирования                    : VirtualDubModRus 1.5.10.2 (build 2542/release)
Библиотека кодирования                   : VirtualDubMod build 2542/release

Видео
Идентификатор                            : 0
Формат                                   : MPEG-4 Visual
Профиль формата                          : Advanced Simple@L5
Параметр BVOP формата                    : 2
Параметр QPel формата                    : Нет
Параметр GMC формата                     : Без точки перехода
Параметр матрицы формата                 : Default (H.263)
Идентификатор кодека                     : XVID
Идентификатор кодека/Подсказка           : XviD
Продолжительность                        : 23 м.
Битрейт                                  : 1505 Кбит/сек
Ширина                                   : 720 пикселей
Высота                                   : 404 пикселя
Соотношение сторон                       : 16:9
Частота кадров                           : 23,976 кадра/сек
Цветовое пространство                    : YUV
Субдискретизация насыщенности            : 4:2:0
Битовая глубина                          : 8 бит
Тип развёртки                            : Прогрессивная
Метод сжатия                             : С потерями
Бит/(Пиксели*Кадры)                      : 0.216
Размер потока                            : 254 Мбайт (74%)
Библиотека кодирования                   : XviD 64

Аудио #1
Идентификатор                            : 1
Формат                                   : AC-3
Формат/Информация                        : Audio Coding 3
Расширение режима                        : CM (complete main)
Параметр Endianness формата              : Big
Идентификатор кодека                     : 2000
Продолжительность                        : 23 м.
Вид битрейта                             : Постоянный
Битрейт                                  : 256 Кбит/сек
Каналы                                   : 2 канала
Расположение каналов                     : Front: L R
Частота                                  : 48,0 КГц
Битовая глубина                          : 16 бит
Метод сжатия                             : С потерями
Размер потока                            : 43,2 Мбайт (13%)
Выравнивание                             : Разделение по промежуткам
Продолжительность промежутка             : 42  мс. (1,00 видеокадр)
Время предзагрузки промежутка            : 500  мс.
Заголовок                                : Russian [JeFerSon]

Аудио #2
Идентификатор                            : 2
Формат                                   : AC-3
Формат/Информация                        : Audio Coding 3
Расширение режима                        : CM (complete main)
Параметр Endianness формата              : Big
Идентификатор кодека                     : 2000
Продолжительность                        : 23 м.
Вид битрейта                             : Постоянный
Битрейт                                  : 256 Кбит/сек
Каналы                                   : 2 канала
Расположение каналов                     : Front: L R
Частота                                  : 48,0 КГц
Битовая глубина                          : 16 бит
Метод сжатия                             : С потерями
Размер потока                            : 43,2 Мбайт (13%)
Выравнивание                             : Разделение по промежуткам
Продолжительность промежутка             : 42  мс. (1,00 видеокадр)
Время предзагрузки промежутка            : 500  мс.
Заголовок                                : Japanese [Original]


Скриншоты: - показать



Дядя Шарик
Релиз от
источник
ARRU & OpenDub & JeFerSon & RenmeiRei & REBUILD ARRU
А вы ничего не забыли?
наверх

Последние поступления