ARRU





Senkou no Night Raid
Огни Ночного Рейда [01-13 из 13][BDRip][HWP]   Bookmark


Скачать вход / регистрация
Тема на форуме Обсудить аниме (комментариев: 18)
Обсуждение раздачи (комментариев: 36)
ОписаниеSenkou no Night Raid / Огни Ночного Рейда [01-13 из 13][BDRip][HWP]
Оригинальное название: Senkou no Night Raid
Английское название: Blazing Night Raid
Русское название: Огни ночного Рейда

Страна: Япония
Жанр: приключения, история, мистика
Год выхода: 2010
Колличество серий: 13 + эпизод 6.5
Продолжительность: 25 мин
Студия: A-1 Pictures Inc.
Режиссёр: Мацумото Дзюн
Автор оригинала: Ониси Синсукэ

Описание:
Китай, 1931 год. Гоминьдан при поддержке США захватил власть и перенес столицу в Нанкин. С этим раскладом не согласны коммунисты и ряд военных лидеров, в стране идет вялотекущая гражданская война, рождаются и гибнут самые странные союзы и альянсы. В Шанхае, истинном Вавилоне Дальнего Востока, не протолкнуться от дипломатов, шпионов, бандитов и прочих темных личностей. Япония, конечно, не могла остаться в стороне от событий, но сложная обстановка в земле Ямато пока что исключала прямое вмешательство. Поэтому японские власти доверили действия в Шанхае неофициальным структурам, в том числе и тайной организации «Сакурай», то есть «Колодец под сакурой».

Боевую часть организации составляют четверо агентов с уникальными способностями: телепат и аристократка Юкина, приехавшая в Китай в поисках старшего брата, ее слуга Нацумэ, обладающий сверхострым зрением, потомственный самурай Кадзура, владеющий даром телепортации, и плейбой-телекинетик Аой, самый бесшабашный из всей четверки. Под чутким руководством незаметного господина Синъитиро эти бойцы невидимого фронта день за днем «решают вопросы» в пользу Страны восходящего солнца. Вот только ответы на некоторые вопросы им явно не стоило спрашивать!

© Hollow

Названия эпизодов - показать

01. Спасательная операция
02. Вспоминающееся рондо
03. Тень, обрушенная на большую четвёрку
04. Камера, Бао и бродячий кот
05. Летний негатив
06. Грозовая ночь
6.5. Предчувствие (нетранслировавшийся эпизод)
07. Инцидент
08. Страна вечной мерзлоты
09. Новая столица
10. Восток есть восток
11. Во мраке
12. Ночной рейд
13. Надежда умирает последней


Источник рипа: BD-Rip
Автор рипа\энкод: RACER RS
Тип видео: Без хардсаба
Контейнер: AVI
Видео: XviD 64 | 720 x 404 (16:9) | 23,976 fps | 1450 kbps ;

Аудио:
RUS: AC3 | 48000Hz | 256 Kbps | 2ch
JAP: AC3 | 48000Hz | 256 Kbps | 2ch
Субтитры: Ru - soft [ASS]и[SRT]

Озвучивание: absurd95 & Eladiel
Перевод: 1-6 Blazing Wizard, 6.5-13 GMC group

MediaInfo: - показать

General
Complete name                            : I:\ARRU Rebuild\Senkou_no_Night_Raid_(TV)[BD-Rip]_[HWP]_[AnimeReactor.ru]\Senkou_no_Night_Raid_TV_[03_of_13]_(Xvid 720 x 404 AC3x2) [ru_jp]_[Animereactor].avi
Format                                   : AVI
Format/Info                              : Audio Video Interleave
File size                                : 344 MiB
Duration                                 : 24mn 20s
Overall bit rate                         : 1 976 Kbps
Writing application                      : VirtualDubMod 1.5.10.2 (build 2540/release)
Writing library                          : VirtualDubMod build 2540/release

Video
ID                                       : 0
Format                                   : MPEG-4 Visual
Format profile                           : Advanced Simple@L5
Format settings, BVOP                    : 2
Format settings, QPel                    : No
Format settings, GMC                     : No warppoints
Format settings, Matrix                  : Default (H.263)
Codec ID                                 : XVID
Codec ID/Hint                            : XviD
Duration                                 : 24mn 20s
Bit rate                                 : 1 450 Kbps
Width                                    : 720 pixels
Height                                   : 404 pixels
Display aspect ratio                     : 16:9
Frame rate                               : 23.976 fps
Color space                              : YUV
Chroma subsampling                       : 4:2:0
Bit depth                                : 8 bits
Scan type                                : Progressive
Compression mode                         : Lossy
Bits/(Pixel*Frame)                       : 0.208
Stream size                              : 252 MiB (73%)
Writing library                          : XviD 64

Audio #1
ID                                       : 1
Format                                   : AC-3
Format/Info                              : Audio Coding 3
Mode extension                           : CM (complete main)
Codec ID                                 : 2000
Duration                                 : 24mn 20s
Bit rate mode                            : Constant
Bit rate                                 : 256 Kbps
Channel(s)                               : 2 channels
Channel positions                        : Front: L R
Sampling rate                            : 48.0 KHz
Bit depth                                : 16 bits
Compression mode                         : Lossy
Stream size                              : 44.6 MiB (13%)
Alignment                                : Split accross interleaves
Interleave, duration                     : 42 ms (1.00 video frame)
Interleave, preload duration             : 500 ms
Title                                    : absurd95 and Eladiel [Russian]

Audio #2
ID                                       : 2
Format                                   : AC-3
Format/Info                              : Audio Coding 3
Mode extension                           : CM (complete main)
Codec ID                                 : 2000
Duration                                 : 24mn 20s
Bit rate mode                            : Constant
Bit rate                                 : 256 Kbps
Channel(s)                               : 2 channels
Channel positions                        : Front: L R
Sampling rate                            : 48.0 KHz
Bit depth                                : 16 bits
Compression mode                         : Lossy
Stream size                              : 44.6 MiB (13%)
Alignment                                : Split accross interleaves
Interleave, duration                     : 42 ms (1.00 video frame)
Interleave, preload duration             : 500 ms
Title                                    : Original [Japanese]



Скриншоты: - показать




Дядя Шарик
Релиз от
источник
ARRU & REBUILD ARRU   &   RACER_RS
А вы ничего не забыли?
наверх

Последние поступления